Animales fantásticos y Dónde Encontrarlos (2016) 3D SBS [BDRip 1080p][Español Latino 5.1/Ingles DTS][Subs.3D]

Por Chamako / hace 2 meses / 1 Comentario ».

Animales-Fantasticos-3D-Latino

Descargar Animales fantásticos y Dónde Encontrarlos (2016) 3D SBS Audio Latino – Año 1926. Newt Scamander acaba de completar un viaje por todo el mundo para encontrar y documentar una extraordinaria selección de criaturas mágicas. Llegando a Nueva York para hacer una breve parada en su camino, donde podría haber llegado y salido sin incidentes…pero no para un Muggle llamado Jacob, un caso perdido de magia, y la fuga de algunas criaturas fantásticas de Newt, que podrían causar problemas el mundo mágico y en el mundo Muggle.

INFORMACIÓN

TÍTULO ORIGINAL: Fantastic Beasts and Where to Find Them
OTROS TÍTULOS: Animales Fantásticos y dónde Encontrarlos
AÑO: 2016
DURACIÓN: 133 min.
PAÍS: Reino Unido
DIRECTOR: David Yates
GUIÓN: J.K. Rowling (Libro: J.K. Rowling)
MÚSICA: James Newton Howard
FOTOGRAFÍA: Philippe Rousselot
REPARTO: Eddie Redmayne, Katherine Waterston, Dan Fogler, Alison Sudol, Colin Farrell, Carmen Ejogo, Samantha Morton, Ezra Miller, Ron Perlman, Johnny Depp, Zoë Kravitz, Gemma Chan, Jon Voight, Christine Marzano, Lucie Pohl
PRODUCTORA: Coproducción Reino Unido-EEUU; Heyday Films / Warner Bros.
GÉNERO: Fantástico. Aventuras | Spin-off. Magia
PREMIOS:
2016: Premios Oscar: Mejor vestuario. Nominada a mejor diseño de producción
2016: Premios BAFTA: Mejor diseño de producción. 5 nominaciones
2016: Critics Choice Awards: 4 nominaciones incluyendo mejor dirección artística
FECHA DE ESTRENO USA: 10 November 2016
FECHA DE ESTRENO ARGENTINA: 17 November 2016
FECHA DE ESTRENO CHILE: 17 November 2016
FECHA DE ESTRENO COLOMBIA: 17 November 2016
FECHA DE ESTRENO ESPAÑA: 18 November 2016
FECHA DE ESTRENO MÉXICO: 18 November 2016

CAPTURAS




NFO

General
Unique ID : 200297782222512276004662706727473271247 (0x96AFF31CC3D6A434972351213B5E51CF)
Complete name : Fantastic.Beasts.and.Where.to.Find.Them.2016.1080p.3D.SBS.Audio.Latino.Chamako.mkv
Format : Matroska
Format version : Version 4 / Version 2
File size : 18.6 GiB
Duration : 2 h 12 min
Overall bit rate : 20.0 Mb/s
Movie name : www.DOMUBI.com – Fantastic.Beasts.and.Where.to.Find.Them.2016 3D Latino
Encoded date : UTC 2017-03-13 16:40:32
Writing application : mkvmerge v7.9.0 (‘Birds’) 64bit
Writing library : libebml v1.3.1 + libmatroska v1.4.2

Video
ID : 1
Format : AVC
Format/Info : Advanced Video Codec
Format profile : High@L4.1
Format settings, CABAC : Yes
Format settings, ReFrames : 2 frames
Codec ID : V_MPEG4/ISO/AVC
Duration : 2 h 12 min
Bit rate : 15.5 Mb/s
Width : 1 920 pixels
Height : 1 080 pixels
Display aspect ratio : 16:9
Frame rate mode : Constant
Frame rate : 23.976 (24000/1001) FPS
Color space : YUV
Chroma subsampling : 4:2:0
Bit depth : 8 bits
Scan type : Progressive
Bits/(Pixel*Frame) : 0.312
Stream size : 14.2 GiB (76%)
Title : Fantastic.Beasts.and.Where.to.Find.Them.2016.
Writing library : x264 core 142
Encoding settings : cabac=1 / ref=1 / deblock=1:-1:-1 / analyse=0x3:0 / me=hex / subme=5 / psy=0 / mixed_ref=0 / me_range=16 / chroma_me=1 / trellis=0 / 8x8dct=1 / cqm=0 / deadzone=21,11 / fast_pskip=0 / chroma_qp_offset=0 / threads=8 / lookahead_threads=2 / sliced_threads=0 / nr=0 / decimate=1 / interlaced=0 / bluray_compat=0 / constrained_intra=0 / bframes=2 / b_pyramid=0 / b_adapt=1 / b_bias=0 / direct=1 / weightb=0 / open_gop=0 / weightp=0 / keyint=24 / keyint_min=13 / scenecut=40 / intra_refresh=0 / rc=abr / mbtree=0 / bitrate=15500 / ratetol=1.0 / qcomp=0.60 / qpmin=0 / qpmax=69 / qpstep=4 / ip_ratio=1.40 / pb_ratio=1.30 / aq=1:1.00
Default : Yes
Forced : No
Color range : Limited
Color primaries : BT.709
Transfer characteristics : BT.709
Matrix coefficients : BT.709

Audio #1
ID : 2
Format : DTS
Format/Info : Digital Theater Systems
Format profile : MA / Core
Mode : 16
Format settings, Endianness : Big
Codec ID : A_DTS
Duration : 2 h 12 min
Bit rate mode : Variable / Constant
Bit rate : 2 282 kb/s / 1 509 kb/s
Channel(s) : 6 channels
Channel positions : Front: L C R, Side: L R, LFE
Sampling rate : 48.0 kHz
Frame rate : 93.750 FPS (512 spf)
Bit depth : 16 bits
Compression mode : Lossless / Lossy
Stream size : 2.12 GiB (11%)
Title : Fantastic.Beasts.and.Where.to.Find.Them.2016
Language : English
Default : No
Forced : No

Audio #2
ID : 3
Format : DTS
Format/Info : Digital Theater Systems
Mode : 16
Format settings, Endianness : Big
Codec ID : A_DTS
Duration : 2 h 12 min
Bit rate mode : Constant
Bit rate : 1 509 kb/s
Channel(s) : 6 channels
Channel positions : Front: L C R, Side: L R, LFE
Sampling rate : 48.0 kHz
Frame rate : 93.750 FPS (512 spf)
Bit depth : 16 bits
Compression mode : Lossy
Stream size : 1.40 GiB (8%)
Title : Fantastic.Beasts.and.Where.to.Find.Them.2016.
Language : English
Default : No
Forced : No

Audio #3
ID : 4
Format : AC-3
Format/Info : Audio Coding 3
Mode extension : CM (complete main)
Format settings, Endianness : Big
Codec ID : A_AC3
Duration : 2 h 12 min
Bit rate mode : Constant
Bit rate : 448 kb/s
Channel(s) : 6 channels
Channel positions : Front: L C R, Side: L R, LFE
Sampling rate : 48.0 kHz
Frame rate : 31.250 FPS (1536 spf)
Bit depth : 16 bits
Compression mode : Lossy
Stream size : 426 MiB (2%)
Title : Fantastic.Beasts.and.Where.to.Find.Them.2016
Language : English
Default : No
Forced : No

Audio #4
ID : 10
Format : AC-3
Format/Info : Audio Coding 3
Mode extension : CM (complete main)
Format settings, Endianness : Big
Codec ID : A_AC3
Duration : 2 h 12 min
Bit rate mode : Constant
Bit rate : 448 kb/s
Channel(s) : 6 channels
Channel positions : Front: L C R, Side: L R, LFE
Sampling rate : 48.0 kHz
Frame rate : 31.250 FPS (1536 spf)
Bit depth : 16 bits
Compression mode : Lossy
Stream size : 426 MiB (2%)
Title : www.DOMUBI.com – Audio Latino 5.1
Language : Spanish
Default : Yes
Forced : Yes

Text #1
ID : 5
Format : PGS
Muxing mode : zlib
Codec ID : S_HDMV/PGS
Codec ID/Info : Picture based subtitle format used on BDs/HD-DVDs
Duration : 2 h 11 min
Bit rate : 11.8 kb/s
Count of elements : 3198
Stream size : 11.1 MiB (0%)
Title : English-PGS
Language : English
Default : No
Forced : No

Text #2
ID : 6
Format : PGS
Muxing mode : zlib
Codec ID : S_HDMV/PGS
Codec ID/Info : Picture based subtitle format used on BDs/HD-DVDs
Duration : 2 h 12 min
Bit rate : 9 520 b/s
Count of elements : 2656
Stream size : 9.03 MiB (0%)
Title : Spanish-PGS
Language : Spanish
Default : No
Forced : No

Text #3
ID : 7
Format : PGS
Muxing mode : zlib
Codec ID : S_HDMV/PGS
Codec ID/Info : Picture based subtitle format used on BDs/HD-DVDs
Duration : 2 h 11 min
Bit rate : 217 b/s
Count of elements : 50
Stream size : 209 KiB (0%)
Title : Spanish-FORCED-PGS
Language : Spanish
Default : No
Forced : No

Text #4
ID : 8
Format : ASS
Codec ID : S_TEXT/ASS
Codec ID/Info : Advanced Sub Station Alpha
Duration : 2 h 12 min
Bit rate : 190 b/s
Count of elements : 2654
Compression mode : Lossless
Stream size : 185 KiB (0%)
Title : www.DOMUBI.com – Spanish Completos 3D
Default : No
Forced : No

Text #5
ID : 9
Format : ASS
Codec ID : S_TEXT/ASS
Codec ID/Info : Advanced Sub Station Alpha
Duration : 2 h 2 min
Bit rate : 6 b/s
Count of elements : 86
Compression mode : Lossless
Stream size : 6.24 KiB (0%)
Title : www.DOMUBI.com – Spanish Forzados 3D
Language : Spanish
Default : Yes
Forced : Yes

Menu
00:00:00.000 : en:(01)00:00:00:000
00:08:40.269 : en:(02)00:08:40:269
00:18:55.717 : en:(03)00:18:55:717
00:28:23.660 : en:(04)00:28:23:660
00:38:34.186 : en:(05)00:38:34:186
00:48:08.594 : en:(06)00:48:08:594
00:58:19.245 : en:(07)00:58:19:245
01:09:14.692 : en:(08)01:09:14:692
01:17:26.391 : en:(09)01:17:26:391
01:29:33.659 : en:(10)01:29:33:659
01:38:02.084 : en:(11)01:38:02:08

DESCARGAR

UPLOADED

http://ul.to/inrf6zu2
http://ul.to/p5mzzl2d
http://ul.to/3n7ps46x
http://ul.to/khn0taw0
http://ul.to/mhpn3z5l
http://ul.to/5an264jt
http://ul.to/hepj3b0v
http://ul.to/70cdhlvz
http://ul.to/dmmjdltj
http://ul.to/uh30jnns
http://ul.to/cf9x597d
http://ul.to/f5yt8mqb
http://ul.to/ld455ohm
http://ul.to/nna21vcl
http://ul.to/5cz1y2pt
http://ul.to/d3gech7l
http://ul.to/milvbxb4
http://ul.to/cvbrtx3n
http://ul.to/qbjgae4g
http://ul.to/g1mdfdu8
http://ul.to/3ergx4um
http://ul.to/aejirw0s
http://ul.to/uz551anz

1FICHIER

https://1fichier.com/?tog5d83qnr
https://1fichier.com/?txmsf7ii7r
https://1fichier.com/?jd9gzzh8ey
https://1fichier.com/?cfq2bln2kf
https://1fichier.com/?275dqcun2a
https://1fichier.com/?h46rebtixs
https://1fichier.com/?e8k7lg94k8
https://1fichier.com/?l4d7ilvqlt
https://1fichier.com/?an8e7bz6j0
https://1fichier.com/?93xo1vhapy
https://1fichier.com/?yngn0b4bmb
https://1fichier.com/?islh2p51op
https://1fichier.com/?3h5a130t16
https://1fichier.com/?giaqez73a0
https://1fichier.com/?9t4us34m61
https://1fichier.com/?kat6jynnpw
https://1fichier.com/?2qkx4tqi3b
https://1fichier.com/?du0qnndn5c
https://1fichier.com/?mbsrkd3hro
https://1fichier.com/?mkqb0a3p0b
https://1fichier.com/?nm7j67u3ub
https://1fichier.com/?6b6by6rzd3
https://1fichier.com/?i4glrno3p6

MEGA

Lo sentimos, este contenido está visible solamente para usuarios registrados. Click aquí para Registrarse

Un Comentario

Deja un comentario

Compra premium Uploaded

uploaded

Facebook

Peliculas en 3D

Monsters Univrsity 3D

Pacific Rim 3D

Croods 3D

Star Trek 3D

Guerra Mundial Z 3D

Iron MAN 3 3D

Rip Departamento 3D

Los Pitufos 2 3 3D

Man of Steel 3 3D

Mi Villano favorito 2 3D

Aviones 3D

Turbo 2013 3D

Turbo 2013 3D

Percy Jackson 2013 3D

Gatsby 3D

Epic 3D

Gi Joe 2 3D

Hansel y Gretel 3D

Hansel y Gretel 3D

Oz 3D

The Hobbit 3D

Ilusionautas 3D

Life of Pi 3D

El Origen de los Guardianes 3D

Ralph el Demoledor 3D

Silent Hill Revelation 3D

Monster 3D

Monster 3D

Monster 3D

DREDD 3D 1080P

Brave 3D 1080P

Series en DVD

Spartacus Vengeance Season  2 DVD The Big Bang Theory Season 5 DVD Homeland Season 1 DVD Once Upon a Time Season 1 DVD The Walking Dead Season 2 DVD