Aviones (2013) [3D SBS][BDRip 1080p][Español Latino 5.1/Ingles DTS][Sub.Español Completo&Forzados 3D]

Por Chamako / hace 4 años / 4 Comentarios ».

planes 3d

Desde las alturas del mundo de “Cars” llega la película de Disney “Aviones”. La nueva película de animación en 3D llena de acción y aventuras, protagonizada por Dusty (voz de Dane Cook), un avión que sueña con participar en una competición aérea de altos vuelos. Pero Dusty no fue precisamente construido para competir y resulta que… ¡tiene miedo a las alturas! Así que, recurre a un experimentado aviador naval que le ayuda a clasificarse para retar al vigente campeón del circuito de carreras. Dusty demostrará su valor para alcanzar alturas inimaginables y enseñará al mundo lo que hay que hacer para levantar el vuelo. La película de Disney “Aviones” despega en agosto de 2013 y estará disponible en Disney Digital 3D™ en una selección de cines.


Título: Aviones
Título original: Planes
País: USA
Estreno en USA: 09/08/2013
Estreno en España: 14/08/2013
Productora: DisneyToon Studios
Director: Klay Hall
Guión: Jeffrey M. Howard
Reparto: (Voces de) Val Kilmer, Julia Louis-Dreyfus, Brad Garrett, Teri Hatcher, John Cleese, Dane Cook, Anthony Edwards, Priyanka Chopra, Stacy Keach, Sinbad, Cedric the Entertainer, Carlos Alazraqui, Roger Craig Smith, Gabriel Iglesias, Brent Musburger
Calificación: Apta para todos los públicos

c2013-11-01-04h48m43s228.png
c2013-11-01-04h49m22s129.png
c2013-11-01-04h48m54s99.png
c2013-11-01-04h48m49s48.png

General
Unique ID : 193522537298998092813882161595197954520 (0x919715BF4509636395D2880E945819D8)
Complete name : Aviones (2013) 3D SBS Latino.mkv
Format : Matroska
Format version : Version 2
File size : 7.71 GiB
Duration : 1h 31mn
Overall bit rate : 12.1 Mbps
Movie name : www.Chamako.Net – Aviones (2013) 3D SBS BDRip 1080p Latino 5.1
Encoded date : UTC 2013-11-01 12:32:37
Writing application : mkvmerge v3.4.0 (‘Rapunzel’) built on May 15 2010 09:38:20
Writing library : libebml v0.8.0 + libmatroska v0.9.0

Video
ID : 1
Format : AVC
Format/Info : Advanced Video Codec
Format profile : High@L4.1
Format settings, CABAC : Yes
Format settings, ReFrames : 2 frames
Format settings, GOP : M=3, N=24
Codec ID : V_MPEG4/ISO/AVC
Duration : 1h 31mn
Bit rate : 9 922 Kbps
Width : 1 920 pixels
Height : 1 080 pixels
Display aspect ratio : 16:9
Frame rate mode : Constant
Frame rate : 23.976 fps
Color space : YUV
Chroma subsampling : 4:2:0
Bit depth : 8 bits
Scan type : Progressive
Bits/(Pixel*Frame) : 0.200
Stream size : 6.35 GiB (82%)
Title : www.Chamako.Net – Aviones (2013)
Writing library : x264 core
Language : English
Default : No
Forced : No
Color primaries : BT.709
Transfer characteristics : BT.709
Matrix coefficients : BT.709

Audio #1
ID : 2
Format : AC-3
Format/Info : Audio Coding 3
Mode extension : CM (complete main)
Format settings, Endianness : Big
Codec ID : A_AC3
Duration : 1h 31mn
Bit rate mode : Constant
Bit rate : 384 Kbps
Channel(s) : 6 channels
Channel positions : Front: L C R, Side: L R, LFE
Sampling rate : 48.0 KHz
Bit depth : 16 bits
Compression mode : Lossy
Stream size : 252 MiB (3%)
Title : www.Chamako.Net – Latino 5.1
Language : Spanish
Default : Yes
Forced : Yes

Audio #2
ID : 3
Format : DTS
Format/Info : Digital Theater Systems
Mode : 16
Format settings, Endianness : Big
Codec ID : A_DTS
Duration : 1h 31mn
Bit rate mode : Constant
Bit rate : 1 509 Kbps
Channel(s) : 6 channels
Channel positions : Front: L C R, Side: L R, LFE
Sampling rate : 48.0 KHz
Bit depth : 24 bits
Compression mode : Lossy
Delay relative to video : 11ms
Stream size : 989 MiB (13%)
Title : www.Chamako.Net – English DTS
Language : English
Default : No
Forced : No

Text #1
ID : 4
Format : UTF-8
Codec ID : S_TEXT/UTF8
Codec ID/Info : UTF-8 Plain Text
Title : www.Chamako.Net – English
Language : English
Default : No
Forced : No

Text #2
ID : 5
Format : ASS
Codec ID : S_TEXT/ASS
Codec ID/Info : Advanced Sub Station Alpha
Compression mode : Lossless
Title : www.Chamako.Net – Spanish Completos
Language : Spanish
Default : No
Forced : No

Text #3
ID : 6
Format : ASS
Codec ID : S_TEXT/ASS
Codec ID/Info : Advanced Sub Station Alpha
Compression mode : Lossless
Title : www.Chamako.Net – Spanish Forzados
Language : Spanish
Default : No
Forced : Yes

Menu
00:00:00.000 : en:00:00:00.000
00:04:41.990 : en:00:04:41.990
00:07:23.234 : en:00:07:23.234
00:09:04.294 : en:00:09:04.294
00:14:38.085 : en:00:14:38.085
00:17:30.549 : en:00:17:30.549
00:24:58.872 : en:00:24:58.872
00:30:10.767 : en:00:30:10.767
00:36:28.186 : en:00:36:28.186
00:40:37.518 : en:00:40:37.518
00:42:51.193 : en:00:42:51.193
00:48:07.801 : en:00:48:07.801
00:51:37.802 : en:00:51:37.802
00:56:22.378 : en:00:56:22.378
01:00:06.144 : en:01:00:06.144
01:01:59.924 : en:01:01:59.924
01:07:05.312 : en:01:07:05.312
01:10:13.042 : en:01:10:13.042
01:12:27.134 : en:01:12:27.134
01:16:26.915 : en:01:16:26.915

SAMPLE

FREAKSHARE

http://freakshare.com/files/2qsx9e52/AV3DSBSCHamako.part01.rar.html
http://freakshare.com/files/fk523usg/AV3DSBSCHamako.part01.rev.html
http://freakshare.com/files/j8674xrk/AV3DSBSCHamako.part02.rar.html
http://freakshare.com/files/t3ijv6yp/AV3DSBSCHamako.part02.rev.html
http://freakshare.com/files/ms5n3ljh/AV3DSBSCHamako.part03.rar.html
http://freakshare.com/files/r7kdk3uy/AV3DSBSCHamako.part04.rar.html
http://freakshare.com/files/0ymuuxre/AV3DSBSCHamako.part05.rar.html
http://freakshare.com/files/1m2wywmo/AV3DSBSCHamako.part06.rar.html
http://freakshare.com/files/jzc0dzcf/AV3DSBSCHamako.part07.rar.html
http://freakshare.com/files/nf7vp7iq/AV3DSBSCHamako.part08.rar.html
http://freakshare.com/files/wwzq8lww/AV3DSBSCHamako.part09.rar.html
http://freakshare.com/files/31xi1wly/AV3DSBSCHamako.part10.rar.html
http://freakshare.com/files/z5rorg2y/AV3DSBSCHamako.part11.rar.html
http://freakshare.com/files/3rarh42s/AV3DSBSCHamako.part12.rar.html
http://freakshare.com/files/3h3ibr0b/AV3DSBSCHamako.part13.rar.html
http://freakshare.com/files/0kducpjm/AV3DSBSCHamako.part14.rar.html
http://freakshare.com/files/mhvzzb2f/AV3DSBSCHamako.part15.rar.html
http://freakshare.com/files/nyajp5ne/AV3DSBSCHamako.part16.rar.html

UPLOADED

http://ul.to/khs06z3n
http://ul.to/cnyh8llj
http://ul.to/t044k5h7
http://ul.to/l6eqlc0v
http://ul.to/wua4t9po
http://ul.to/tfvd85h0
http://ul.to/td60zynw
http://ul.to/ydti60nm
http://ul.to/hrmmplgq
http://ul.to/w2efhr87
http://ul.to/j7iklg0n
http://ul.to/0fi73gi8
http://ul.to/d18u6g53
http://ul.to/q167me7s
http://ul.to/4pt5uzx7
http://ul.to/wexowzgq
http://ul.to/n18xkb4c
http://ul.to/8bbpm61q

PUTLOCKER
Lo sentimos, este contenido está visible solamente para usuarios registrados. Click aquí para Registrarse

MEGA
Lo sentimos, este contenido está visible solamente para usuarios registrados. Click aquí para Registrarse


La Contraseña para todos los archivos es “chamako” (sin comillas y todo minusculas)

Apoyame comprando tu cuenta premium de estos servidores

Compra tu cuenta premium cada mes >>> FreakShare

Compra tu cuenta premium cada mes  >>> Uploaded

4 Comentarios

Deja un comentario

Compra premium Uploaded

uploaded

Facebook

Peliculas en 3D

Monsters Univrsity 3D

Pacific Rim 3D

Croods 3D

Star Trek 3D

Guerra Mundial Z 3D

Iron MAN 3 3D

Rip Departamento 3D

Los Pitufos 2 3 3D

Man of Steel 3 3D

Mi Villano favorito 2 3D

Aviones 3D

Turbo 2013 3D

Turbo 2013 3D

Percy Jackson 2013 3D

Gatsby 3D

Epic 3D

Gi Joe 2 3D

Hansel y Gretel 3D

Hansel y Gretel 3D

Oz 3D

The Hobbit 3D

Ilusionautas 3D

Life of Pi 3D

El Origen de los Guardianes 3D

Ralph el Demoledor 3D

Silent Hill Revelation 3D

Monster 3D

Monster 3D

Monster 3D

DREDD 3D 1080P

Brave 3D 1080P

Series en DVD

Spartacus Vengeance Season  2 DVD The Big Bang Theory Season 5 DVD Homeland Season 1 DVD Once Upon a Time Season 1 DVD The Walking Dead Season 2 DVD