Brave (2012) [3D SBS][BDRip 1080p][Español Latino 5.1/Ingles 5.1][Sub.Español]

Por Chamako / hace 4 años / 4 Comentarios ».

Merida, la indómita hija del Rey Fergus y de la Reina Elinor, es una hábil arquera que decide romper con una antigua costumbre, que es sagrada para los señores de la tierra: el gigantesco Lord MacGuffin, el malhumorado Lord Macintosh y el cascarrabias Lord Dingwall. Las acciones de Merida desencadenan el caos y la furia en el reino. Además, pide ayuda a una sabia anciana que le concede un deseo muy desafortunado. La muchacha tendrá que afrontar grandes peligros antes de aprender qué es la auténtica valentía.

TÍTULO ORIGINAL: Brave
OTROS TÍTULOS: Brave (Indomable) / Valiente
AÑO: 2012
DURACIÓN: 100 min.
PAÍS: USA
DIRECTOR: Mark Andrews, Brenda Chapman, Steve Purcell
GUIÓN: Mark Andrews, Steve Purcell, Brenda Chapman, Irene Mecchi (Historia: Brenda Chapman)
MÚSICA: Patrick Doyle
FOTOGRAFÍA: Animation
REPARTO: Animation
PRODUCTORA: Pixar Animation Studios / Walt Disney Pictures
GÉNERO: Animación. Aventuras. Fantástico. Comedia | Fantasía medieval. Cine familiar. 3-D
FECHA DE ESTRENO USA: 10 de junio de 2012
FECHA DE ESTRENO ARGENTINA: 12 de julio de 2012
FECHA DE ESTRENO ESPAÑA: 10 de agosto de 2012

vlcsnap-2012-11-04-11h54m10s45.png
vlcsnap-2012-11-04-11h58m53s68.png
vlcsnap-2012-11-04-11h57m17s125.png

General
Complete name : Brave 2012 3D SBS Español Latino Ingles 1080P.mkv
Format : Matroska
Format version : Version 2
File size : 8.20 GiB
Duration : 1h 34mn
Overall bit rate : 12.5 Mbps
Movie name : Chamako – Brave 2012 3D SBS 1080P Latino
Encoded date : UTC 2012-11-04 19:46:28
Writing application : mkvmerge v5.8.0 (‘No Sleep / Pillow’) built on Sep 2 2012 15:37:04
Writing library : libebml v1.2.3 + libmatroska v1.3.0

Video
ID : 1
Format : AVC
Format/Info : Advanced Video Codec
Format profile : High@L4.1
Format settings, CABAC : Yes
Format settings, ReFrames : 2 frames
Muxing mode : Header stripping
Codec ID : V_MPEG4/ISO/AVC
Duration : 1h 34mn
Bit rate : 10.9 Mbps
Width : 1 920 pixels
Height : 1 080 pixels
Display aspect ratio : 16:9
Frame rate : 23.976 fps
Color space : YUV
Chroma subsampling : 4:2:0
Bit depth : 8 bits
Scan type : Progressive
Bits/(Pixel*Frame) : 0.220
Stream size : 7.19 GiB (88%)
Title : Chamako – Brave 2012
Writing library : x264 core
Language : English
Default : Yes
Forced : No
Color primaries : BT.709-5, BT.1361, IEC 61966-2-4, SMPTE RP177
Transfer characteristics : BT.709-5, BT.1361
Matrix coefficients : BT.709-5, BT.1361, IEC 61966-2-4 709, SMPTE RP177

Audio #1
ID : 2
Format : AC-3
Format/Info : Audio Coding 3
Mode extension : CM (complete main)
Muxing mode : Header stripping
Codec ID : A_AC3
Duration : 1h 34mn
Bit rate mode : Constant
Bit rate : 640 Kbps
Channel(s) : 6 channels
Channel positions : Front: L C R, Side: L R, LFE
Sampling rate : 48.0 KHz
Bit depth : 16 bits
Compression mode : Lossy
Stream size : 431 MiB (5%)
Title : Latino
Language : Spanish
Default : Yes
Forced : No

Audio #2
ID : 3
Format : AC-3
Format/Info : Audio Coding 3
Mode extension : CM (complete main)
Muxing mode : Header stripping
Codec ID : A_AC3
Duration : 1h 34mn
Bit rate mode : Constant
Bit rate : 640 Kbps
Channel(s) : 6 channels
Channel positions : Front: L C R, Side: L R, LFE
Sampling rate : 48.0 KHz
Bit depth : 16 bits
Compression mode : Lossy
Stream size : 431 MiB (5%)
Title : English
Language : English
Default : No
Forced : No

Text
ID : 4
Format : UTF-8
Codec ID : S_TEXT/UTF8
Codec ID/Info : UTF-8 Plain Text
Title : Spanish
Language : Spanish
Default : No
Forced : No

Menu
00:00:00.000 : en:00:00:00.000
00:04:22.846 : en:00:04:22.846
00:09:17.432 : en:00:09:17.432
00:12:53.356 : en:00:12:53.356
00:14:00.256 : en:00:14:00.256
00:16:10.469 : en:00:16:10.469
00:17:36.681 : en:00:17:36.681
00:22:55.791 : en:00:22:55.791
00:27:22.891 : en:00:27:22.891
00:28:51.229 : en:00:28:51.229
00:30:54.853 : en:00:30:54.853
00:34:00.372 : en:00:34:00.372
00:36:03.495 : en:00:36:03.495
00:39:06.928 : en:00:39:06.928
00:41:55.096 : en:00:41:55.096
00:43:27.980 : en:00:43:27.980
00:47:05.740 : en:00:47:05.740
00:48:22.358 : en:00:48:22.358
00:51:04.061 : en:00:51:04.061
00:52:33.859 : en:00:52:33.859
00:54:01.155 : en:00:54:01.155
00:54:45.699 : en:00:54:45.699
00:57:30.864 : en:00:57:30.864
00:59:00.162 : en:00:59:00.162
01:02:48.181 : en:01:02:48.181
01:03:27.387 : en:01:03:27.387
01:09:57.735 : en:01:09:57.735
01:10:37.275 : en:01:10:37.275
01:12:35.726 : en:01:12:35.726
01:13:39.498 : en:01:13:39.498
01:15:35.489 : en:01:15:35.489
01:16:59.073 : en:01:16:59.073
01:17:37.111 : en:01:17:37.111
01:19:48.200 : en:01:19:48.200
01:23:16.783 : en:01:23:16.783
01:24:38.657 : en:01:24:38.657
01:32:52.567 : en:01:32:52.567

BITSHARE

FREAKSHARE

http://freakshare.com/files/0dadrdd1/BR4V320RI3.part01.rar.html
http://freakshare.com/files/lk7w82zb/BR4V320RI3.part01.rev.html
http://freakshare.com/files/gk8shm55/BR4V320RI3.part02.rar.html
http://freakshare.com/files/odl21c5n/BR4V320RI3.part02.rev.html
http://freakshare.com/files/rufz740v/BR4V320RI3.part03.rar.html
http://freakshare.com/files/augjdp75/BR4V320RI3.part03.rev.html
http://freakshare.com/files/tvlmdps1/BR4V320RI3.part04.rar.html
http://freakshare.com/files/luiyi06c/BR4V320RI3.part05.rar.html
http://freakshare.com/files/qqcmx9qy/BR4V320RI3.part06.rar.html
http://freakshare.com/files/vs1u7gel/BR4V320RI3.part07.rar.html
http://freakshare.com/files/dwdtneub/BR4V320RI3.part08.rar.html
http://freakshare.com/files/yjw8664g/BR4V320RI3.part09.rar.html
http://freakshare.com/files/bkt1m5sj/BR4V320RI3.part10.rar.html
http://freakshare.com/files/lua0n3xa/BR4V320RI3.part11.rar.html
http://freakshare.com/files/j2ntpc9h/BR4V320RI3.part12.rar.html
http://freakshare.com/files/41fc3ens/BR4V320RI3.part13.rar.html
http://freakshare.com/files/vnximxvo/BR4V320RI3.part14.rar.html
http://freakshare.com/files/3aov35rv/BR4V320RI3.part15.rar.html
http://freakshare.com/files/554bszlc/BR4V320RI3.part16.rar.html
http://freakshare.com/files/avwgww5a/BR4V320RI3.part17.rar.html

UPLOADED

http://ul.to/5mts8ktf
http://ul.to/i6nk1qde
http://ul.to/fk1s4hpp
http://ul.to/zkkar2c8
http://ul.to/8qnxjs11
http://ul.to/441zjn0a
http://ul.to/v14ewy6a
http://ul.to/n5900i15
http://ul.to/b8zfxfco
http://ul.to/7hron2oi
http://ul.to/yb05hjuu
http://ul.to/8w2y1npc
http://ul.to/901fn5kt
http://ul.to/u8f1i1i0
http://ul.to/39l6iyba
http://ul.to/h4thf87l
http://ul.to/5j6r2668
http://ul.to/d4t5ssw6
http://ul.to/9pm0j4v5
http://ul.to/su54fskb

PUTLOCKER
Lo sentimos, este contenido está visible solamente para usuarios registrados. Click aquí para Registrarse
MEGA

http://paste2.org/p/3008890


La Contraseña para todos los archivos es “chamako” (sin comillas y todo minusculas)

Apoyame comprando tu cuenta premium de estos servidores

Compra tu cuenta premium cada mes >>> FreakShare

Compra tu cuenta premium cada mes  >>>      BitShare 

Compra tu cuenta premium cada mes  >>>      Uploaded

4 Comentarios

Deja un comentario

Compra premium Uploaded

uploaded

Facebook

Peliculas en 3D

Monsters Univrsity 3D

Pacific Rim 3D

Croods 3D

Star Trek 3D

Guerra Mundial Z 3D

Iron MAN 3 3D

Rip Departamento 3D

Los Pitufos 2 3 3D

Man of Steel 3 3D

Mi Villano favorito 2 3D

Aviones 3D

Turbo 2013 3D

Turbo 2013 3D

Percy Jackson 2013 3D

Gatsby 3D

Epic 3D

Gi Joe 2 3D

Hansel y Gretel 3D

Hansel y Gretel 3D

Oz 3D

The Hobbit 3D

Ilusionautas 3D

Life of Pi 3D

El Origen de los Guardianes 3D

Ralph el Demoledor 3D

Silent Hill Revelation 3D

Monster 3D

Monster 3D

Monster 3D

DREDD 3D 1080P

Brave 3D 1080P

Series en DVD

Spartacus Vengeance Season  2 DVD The Big Bang Theory Season 5 DVD Homeland Season 1 DVD Once Upon a Time Season 1 DVD The Walking Dead Season 2 DVD