Cirque Du Soleil Worlds Away (2012) [3D SBS][BDRip 1080p][Español Latino 5.1/Ingles][Subs.3D]

Por Chamako / hace 4 años / 9 Comentarios ».

De la carpa del circo a la gran pantalla, el visionario director de cine James Cameron junto al director Andrew Adamson (Shrek, Narnia), te invitan a una nueva aventura en 3D: “Cirque du Soleil, Mundos lejanos”. Una joven pareja separada debe viajar a través de los increíbles mundos de ensueño del Cirque du Soleil para reencontrarse – el publico tendrá la oportunidad de sumergirse en la tecnología 3D que le permitirá saltar, planear, nadar y bailar junto a los artistas.


Título: Cirque Du Soleil: Mundos lejanos
Título original: Cirque Du Soleil: Worlds Away
País: USA
Estreno en USA: 21/12/2012
Estreno en España: 04/01/2013
Productora: Paramount Pictures, Cirque du Soleil, Strange Weather Productions, Reel FX, Cameron Pace Group
Director: Andrew Adamson
Guión: Andrew Adamson
Reparto: Erica Linz, Igor Zaripov, Lutz Halbhubner, John Clarke, Dallas Barnett
Calificación: Apta para todos los públicos

c2013-03-08-12h19m56s185.png
c2013-03-08-12h22m22s54.png
c2013-03-08-12h22m46s95.png
c2013-03-08-12h23m50s187.png
c2013-03-08-12h22m32s178.png

General
Unique ID : 173490790877582474463106165457432073309 (0x82851C656D5BE5A1A0C580EE09C3D45D)
Complete name : Cirque Du Soleil Worlds Away 2012 3D SBS 1080P Latino.mkv
Format : Matroska
Format version : Version 2
File size : 9.16 GiB
Duration : 1h 31mn
Overall bit rate : 14.4 Mbps
Movie name : wWw.Chamako.Net – Cirque Du Soleil Worlds Away 2012 3D SBS 1080P Latino
Encoded date : UTC 2013-03-08 19:28:54
Writing application : mkvmerge v3.4.0 (‘Rapunzel’) built on May 15 2010 09:38:20
Writing library : libebml v0.8.0 + libmatroska v0.9.0

Video
ID : 1
Format : AVC
Format/Info : Advanced Video Codec
Format profile : High@L4.1
MultiView_Count : 2
MultiView_Layout : Right Eye
Format settings, CABAC : Yes
Format settings, ReFrames : 4 frames
Codec ID : V_MPEG4/ISO/AVC
Duration : 1h 31mn
Bit rate : 11.9 Mbps
Width : 1 920 pixels
Height : 1 080 pixels
Display aspect ratio : 16:9
Frame rate mode : Constant
Frame rate : 23.976 fps
Color space : YUV
Chroma subsampling : 4:2:0
Bit depth : 8 bits
Scan type : Progressive
Bits/(Pixel*Frame) : 0.240
Stream size : 7.61 GiB (83%)
Title : wWw.Chamako.Net – Cirque Du Soleil Worlds Away 2012
Writing library : x264 core 130 r2273 b3065e6
Encoding settings : cabac=1 / ref=4 / deblock=1:-3:-3 / analyse=0x3:0x113 / me=umh / subme=9 / psy=1 / psy_rd=1.00:0.15 / mixed_ref=1 / me_range=16 / chroma_me=1 / trellis=1 / 8x8dct=1 / cqm=0 / deadzone=21,11 / fast_pskip=1 / chroma_qp_offset=-3 / threads=12 / lookahead_threads=1 / sliced_threads=0 / nr=0 / decimate=1 / interlaced=0 / bluray_compat=0 / constrained_intra=0 / bframes=6 / b_pyramid=2 / b_adapt=1 / b_bias=0 / direct=3 / weightb=1 / open_gop=0 / weightp=2 / keyint=250 / keyint_min=23 / scenecut=40 / intra_refresh=0 / rc_lookahead=40 / rc=crf / mbtree=1 / crf=17.0 / qcomp=0.60 / qpmin=10 / qpmax=69 / qpstep=4 / vbv_maxrate=40000 / vbv_bufsize=30000 / crf_max=0.0 / nal_hrd=none / ip_ratio=1.40 / aq=1:1.00
Default : No
Forced : No

Audio #1
ID : 2
Format : DTS
Format/Info : Digital Theater Systems
Mode : 16
Format settings, Endianness : Big
Codec ID : A_DTS
Duration : 1h 31mn
Bit rate mode : Constant
Bit rate : 1 509 Kbps
Channel(s) : 6 channels
Channel positions : Front: L C R, Side: L R, LFE
Sampling rate : 48.0 KHz
Bit depth : 24 bits
Compression mode : Lossy
Delay relative to video : 11ms
Stream size : 984 MiB (10%)
Title : wWw.Chamako.Net – English DTS
Language : English
Default : No
Forced : No

Audio #2
ID : 3
Format : AC-3
Format/Info : Audio Coding 3
Mode extension : CM (complete main)
Format settings, Endianness : Big
Codec ID : A_AC3
Duration : 1h 31mn
Bit rate mode : Constant
Bit rate : 640 Kbps
Channel(s) : 6 channels
Channel positions : Front: L C R, Side: L R, LFE
Sampling rate : 48.0 KHz
Bit depth : 16 bits
Compression mode : Lossy
Stream size : 418 MiB (4%)
Title : wWw.Chamako.Net – Latino 5.1
Language : Spanish
Default : Yes
Forced : Yes

Text #1
ID : 4
Format : ASS
Codec ID : S_TEXT/ASS
Codec ID/Info : Advanced Sub Station Alpha
Compression mode : Lossless
Title : wWw.Chamako.Net – Spanish Forzados 3D
Language : Spanish
Default : No
Forced : Yes

Text #2
ID : 5
Format : ASS
Codec ID : S_TEXT/ASS
Codec ID/Info : Advanced Sub Station Alpha
Compression mode : Lossless
Title : wWw.Chamako.Net – Spanish
Language : Spanish
Default : No
Forced : No

Menu
00:00:00.000 : en:00:00:00.000
00:07:01.921 : en:00:07:01.921
00:14:47.678 : en:00:14:47.678
00:18:59.138 : en:00:18:59.138
00:28:03.473 : en:00:28:03.473
00:37:52.187 : en:00:37:52.187
00:44:06.602 : en:00:44:06.602
00:46:47.263 : en:00:46:47.263
00:51:06.563 : en:00:51:06.563
00:55:44.758 : en:00:55:44.758
00:58:59.953 : en:00:58:59.953
01:03:59.836 : en:01:03:59.836
01:11:15.229 : en:01:11:15.229
01:20:49.845 : en:01:20:49.845

FREAKSHARE

http://freakshare.com/files/m9lesaff/F32KIF329KJG.part01.rar.html
http://freakshare.com/files/peqsyrwe/F32KIF329KJG.part01.rev.html
http://freakshare.com/files/fvt0uy1v/F32KIF329KJG.part02.rar.html
http://freakshare.com/files/vxe1tk7u/F32KIF329KJG.part02.rev.html
http://freakshare.com/files/uidvj557/F32KIF329KJG.part03.rar.html
http://freakshare.com/files/q00m6gb5/F32KIF329KJG.part03.rev.html
http://freakshare.com/files/q4nq5nno/F32KIF329KJG.part04.rar.html
http://freakshare.com/files/wt73lxcb/F32KIF329KJG.part05.rar.html
http://freakshare.com/files/53fxlrye/F32KIF329KJG.part06.rar.html
http://freakshare.com/files/qae65oan/F32KIF329KJG.part07.rar.html
http://freakshare.com/files/jmtmu3hd/F32KIF329KJG.part08.rar.html
http://freakshare.com/files/q30ucwua/F32KIF329KJG.part09.rar.html
http://freakshare.com/files/cfghvbba/F32KIF329KJG.part10.rar.html
http://freakshare.com/files/ip5okfga/F32KIF329KJG.part11.rar.html
http://freakshare.com/files/og48jaiv/F32KIF329KJG.part12.rar.html
http://freakshare.com/files/rmdsi2w6/F32KIF329KJG.part13.rar.html
http://freakshare.com/files/5td2i50y/F32KIF329KJG.part14.rar.html
http://freakshare.com/files/4wf6a40i/F32KIF329KJG.part15.rar.html
http://freakshare.com/files/rier7yka/F32KIF329KJG.part16.rar.html
http://freakshare.com/files/aa8xbu8b/F32KIF329KJG.part17.rar.html
http://freakshare.com/files/u0jh9dbn/F32KIF329KJG.part18.rar.html
http://freakshare.com/files/ylvltqdx/F32KIF329KJG.part19.rar.html

UPLOADED

http://ul.to/hc5f8odc
http://ul.to/3spbanpp
http://ul.to/3n6yvlvb
http://ul.to/tdw6ridb
http://ul.to/dassx376
http://ul.to/73sq8ese
http://ul.to/pus3wgde
http://ul.to/df7qviu7
http://ul.to/do86c2gp
http://ul.to/2cq1hwrz
http://ul.to/qu5h094c
http://ul.to/iiqtb2qk
http://ul.to/b1b0exur
http://ul.to/gaxzm86x
http://ul.to/xfmxveoo
http://ul.to/frnjb310
http://ul.to/zt0rebdg
http://ul.to/2ar18tuf
http://ul.to/g8warpod
http://ul.to/q4gglxzh
http://ul.to/zueurbl5
http://ul.to/rjx9dv9i

PUTLOCKER
Lo sentimos, este contenido está visible solamente para usuarios registrados. Click aquí para Registrarse


La Contraseña para todos los archivos es “chamako” (sin comillas y todo minusculas)

Apoyame comprando tu cuenta premium de estos servidores

Compra tu cuenta premium cada mes >>> FreakShare

Compra tu cuenta premium cada mes  >>> Uploaded

9 Comentarios

Deja un comentario

Compra premium Uploaded

uploaded

Facebook

Peliculas en 3D

Monsters Univrsity 3D

Pacific Rim 3D

Croods 3D

Star Trek 3D

Guerra Mundial Z 3D

Iron MAN 3 3D

Rip Departamento 3D

Los Pitufos 2 3 3D

Man of Steel 3 3D

Mi Villano favorito 2 3D

Aviones 3D

Turbo 2013 3D

Turbo 2013 3D

Percy Jackson 2013 3D

Gatsby 3D

Epic 3D

Gi Joe 2 3D

Hansel y Gretel 3D

Hansel y Gretel 3D

Oz 3D

The Hobbit 3D

Ilusionautas 3D

Life of Pi 3D

El Origen de los Guardianes 3D

Ralph el Demoledor 3D

Silent Hill Revelation 3D

Monster 3D

Monster 3D

Monster 3D

DREDD 3D 1080P

Brave 3D 1080P

Series en DVD

Spartacus Vengeance Season  2 DVD The Big Bang Theory Season 5 DVD Homeland Season 1 DVD Once Upon a Time Season 1 DVD The Walking Dead Season 2 DVD