Dredd (2012) [3D SBS][BDRip 1080p][Español Latino 5.1/Ingles DTS][Sub.Español]

Por Chamako / hace 4 años / 5 Comentarios ».

En un futuro cercano, Norteamérica se ha convertido en un páramo asolado por la radiactividad. Una única y gran megalópolis se extiende a lo largo de la costa este: Mega City 1. Esta inmensa y violenta urbe cuenta con una población de más de 400 millones de personas, cada una de las cuales es un infractor en potencia. Los encargados de acabar con el caos e imponer el orden son unos individuos que actúan a la vez como agentes de la ley, jueces, jurados y verdugos. Al frente de ellos está Dredd (Karl Urban), una leyenda viva de la justicia que vive entregado por entero a hacer cumplir la ley. En una misión aparentemente rutinaria junto a Cassandra Anderson (Olivia Thrilby), una juez novata dotada de grandes habilidades psíquicas, se disponen a investigar un homicidio en un peligroso rascacielos de 200 pisos de altura, controlado por el clan de la despiadada Ma-Ma (Lena Headley). Pero al intentar arrestar a uno de los principales secuaces de Ma-Ma, ella cierra a cal y canto todo el edificio y ordena a sus hombres que capturen a los jueces. La lucha por la supervivencia, obligará a Dredd y Cassandra a actuar de manera implacable. Nueva adaptación del cómic homónimo ya llevado a la pantalla en 1995.


TÍTULO ORIGINAL: Dredd
AÑO: 2012
DURACIÓN: 95 min.
PAÍS: Reino Unido
DIRECTOR: Pete Travis
GUIÓN: Alex Garland
MÚSICA: Paul Leonard-Morgan
FOTOGRAFÍA: Anthony Dod Mantle
REPARTO: Karl Urban,Olivia Thirlby, Lena Headey, Domhnall Gleeson, Santi Scinelli, Jason Cope, Deobia Oparei, Langley Kirkwood, Brandon Lianos, Rakie Ayola, Allen Irwin, Joe Vaz, Scott Sparrow
PRODUCTORA: DNA Films / IM Global / Reliance Big Entertainment
GÉNERO: Ciencia ficción. Acción | Cómic. 3-D




General
Complete name : Dredd 2012 1080p Bluray 3D Latino Chamako.mkv
Format : Matroska
Format version : Version 2
File size : 10.8 GiB
Duration : 1h 35mn
Overall bit rate : 16.1 Mbps
Movie name : Chamako – Dredd 2012 3D 1080P Latino
Encoded date : UTC 2012-12-29 22:56:45
Writing application : mkvmerge v3.4.0 (‘Rapunzel’) built on May 15 2010 09:38:20
Writing library : libebml v0.8.0 + libmatroska v0.9.0

Video
ID : 1
Format : AVC
Format/Info : Advanced Video Codec
Format profile : High@L4.1
Format settings, CABAC : Yes
Format settings, ReFrames : 2 frames
Codec ID : V_MPEG4/ISO/AVC
Duration : 1h 35mn
Bit rate : 13.8 Mbps
Width : 1 920 pixels
Height : 1 080 pixels
Display aspect ratio : 16:9
Frame rate mode : Constant
Frame rate : 23.976 fps
Color space : YUV
Chroma subsampling : 4:2:0
Bit depth : 8 bits
Scan type : Progressive
Bits/(Pixel*Frame) : 0.278
Stream size : 9.25 GiB (86%)
Title : Chamako – Dredd 2012
Writing library : x264 core
Language : English
Default : No
Forced : No
Color primaries : BT.709
Transfer characteristics : BT.709
Matrix coefficients : BT.709

Audio #1
ID : 2
Format : DTS
Format/Info : Digital Theater Systems
Mode : 16
Format settings, Endianness : Big
Codec ID : A_DTS
Duration : 1h 35mn
Bit rate mode : Constant
Bit rate : 1 509 Kbps
Channel(s) : 6 channels
Channel positions : Front: L C R, Side: L R, LFE
Sampling rate : 48.0 KHz
Bit depth : 24 bits
Compression mode : Lossy
Delay relative to video : 11ms
Stream size : 1.01 GiB (9%)
Title : English
Language : English
Default : No
Forced : No

Audio #2
ID : 3
Format : AC-3
Format/Info : Audio Coding 3
Mode extension : CM (complete main)
Format settings, Endianness : Big
Codec ID : A_AC3
Duration : 1h 35mn
Bit rate mode : Constant
Bit rate : 448 Kbps
Channel(s) : 6 channels
Channel positions : Front: L C R, Side: L R, LFE
Sampling rate : 48.0 KHz
Bit depth : 16 bits
Compression mode : Lossy
Stream size : 307 MiB (3%)
Title : Chamako – Latino
Language : Spanish
Default : Yes
Forced : Yes

Text
ID : 4
Format : UTF-8
Codec ID : S_TEXT/UTF8
Codec ID/Info : UTF-8 Plain Text
Title : Spanish
Language : Spanish
Default : No
Forced : No

Menu
00:00:00.000 : en:00:00:00.000
00:05:43.552 : en:00:05:43.552
00:08:14.661 : en:00:08:14.661
00:14:17.356 : en:00:14:17.356
00:19:42.681 : en:00:19:42.681
00:24:09.323 : en:00:24:09.323
00:27:21.056 : en:00:27:21.056
00:36:01.284 : en:00:36:01.284
00:39:49.012 : en:00:39:49.012
00:48:26.946 : en:00:48:26.946
00:54:39.651 : en:00:54:39.651
01:00:57.237 : en:01:00:57.237
01:06:30.570 : en:01:06:30.570
01:12:01.651 : en:01:12:01.651
01:20:10.264 : en:01:20:10.264
01:27:00.382 : en:01:27:00.382

FREAKSHARE

http://freakshare.com/files/ew8fa1zf/DR3RD1O8O3DChamako.part01.rar.html
http://freakshare.com/files/37rmh29e/DR3RD1O8O3DChamako.part01.rev.html
http://freakshare.com/files/jki6i0il/DR3RD1O8O3DChamako.part02.rar.html
http://freakshare.com/files/gjfggdd3/DR3RD1O8O3DChamako.part03.rar.html
http://freakshare.com/files/c1v2mmip/DR3RD1O8O3DChamako.part04.rar.html
http://freakshare.com/files/vtxd16pc/DR3RD1O8O3DChamako.part05.rar.html
http://freakshare.com/files/j80my7mg/DR3RD1O8O3DChamako.part06.rar.html
http://freakshare.com/files/vlbaj78a/DR3RD1O8O3DChamako.part07.rar.html
http://freakshare.com/files/7pblobhf/DR3RD1O8O3DChamako.part08.rar.html
http://freakshare.com/files/vdhv8fr7/DR3RD1O8O3DChamako.part09.rar.html
http://freakshare.com/files/gmv8xy6k/DR3RD1O8O3DChamako.part10.rar.html
http://freakshare.com/files/1eqxe6s6/DR3RD1O8O3DChamako.part11.rar.html
http://freakshare.com/files/3u5e5e49/DR3RD1O8O3DChamako.part12.rar.html
http://freakshare.com/files/4fsi33ia/DR3RD1O8O3DChamako.part13.rar.html
http://freakshare.com/files/o0a49kla/DR3RD1O8O3DChamako.part14.rar.html

UPLOADED

http://ul.to/285jy2a9
http://ul.to/bkwj97q0
http://ul.to/2qc2svkr
http://ul.to/fizxwfmw
http://ul.to/zr9b2xwl
http://ul.to/okojiu8q
http://ul.to/ur4mntd8
http://ul.to/fcxo010r
http://ul.to/f7bc23yh
http://ul.to/3fbv6rox
http://ul.to/fc8n4msn
http://ul.to/mvkjndkb
http://ul.to/otxjw36t
http://ul.to/nnpuapsn
http://ul.to/kot8rla3

PUTLOCKER
Lo sentimos, este contenido está visible solamente para usuarios registrados. Click aquí para Registrarse


La Contraseña para todos los archivos es “chamako” (sin comillas y todo minusculas)

Apoyame comprando tu cuenta premium de estos servidores

Compra tu cuenta premium cada mes >>> FreakShare

Compra tu cuenta premium cada mes  >>> Uploaded

5 Comentarios

Deja un comentario

Compra premium Uploaded

uploaded

Facebook

Peliculas en 3D

Monsters Univrsity 3D

Pacific Rim 3D

Croods 3D

Star Trek 3D

Guerra Mundial Z 3D

Iron MAN 3 3D

Rip Departamento 3D

Los Pitufos 2 3 3D

Man of Steel 3 3D

Mi Villano favorito 2 3D

Aviones 3D

Turbo 2013 3D

Turbo 2013 3D

Percy Jackson 2013 3D

Gatsby 3D

Epic 3D

Gi Joe 2 3D

Hansel y Gretel 3D

Hansel y Gretel 3D

Oz 3D

The Hobbit 3D

Ilusionautas 3D

Life of Pi 3D

El Origen de los Guardianes 3D

Ralph el Demoledor 3D

Silent Hill Revelation 3D

Monster 3D

Monster 3D

Monster 3D

DREDD 3D 1080P

Brave 3D 1080P

Series en DVD

Spartacus Vengeance Season  2 DVD The Big Bang Theory Season 5 DVD Homeland Season 1 DVD Once Upon a Time Season 1 DVD The Walking Dead Season 2 DVD