Dunkerque (2017) 4K UHD Español Latino – Ingles [MEGA]

Por Chamako / hace 3 días / 0 Comentarios ».

Dunkerke-4K-LATINO-

Dunkerque (2017) 4K UHD LATINO es una película británico-estadounidense de género bélico.n. 2​10​ Fue escrita, coproducida y dirigida por Christopher Nolan y protagonizada por Fionn Whitehead, Jack Lowden, Harry Styles, Aneurin Barnard, James D’Arcy, Barry Keoghan, Kenneth Branagh, Cillian Murphy, Mark Rylance y Tom Hardy. Se basa en la Operación Dinamo, una acción militar llevada a cabo por Reino Unido con el fin de evacuar cerca de 400 000 soldados de Francia, la cual había sido invadida por la Alemania nazi en el marco de la Segunda Guerra Mundial.11​ La cinta es una producción entre Países Bajos, el Reino Unido, Francia y los Estados Unidos.

INFORMACIÓN

Título original Dunkirk
País Estados Unidos
Dirección Christopher Nolan
Guion Christopher Nolan
Música Hans Zimmer
Fotografía Hoyte van Hoytema
Reparto Fionn Whitehead, Mark Rylance, Kenneth Branagh, Tom Hardy, Cillian Murphy, Barry Keoghan, Harry Styles, Jack Lowden, Aneurin Barnard, James D’Arcy, Tom Glynn-Carney, Bradley Hall, Damien Bonnard, Jochum ten Haaf, Michel Biel
Productora Coproducción Estados Unidos-Reino Unido-Francia-Países Bajos (Holanda); Warner Bros. / Syncopy Production / Dombey Street Productions / Kaap Holland Film / Canal+ / Ciné+ / RatPac-Dune Entertainment
Género Bélico. Drama | II Guerra Mundial. Supervivencia. Histórico. Basado en hechos reales

CAPTURAS






NFO

General
Unique ID :
Complete name : Dunkirk.2017.UHD.BluRay.2160p.LATINO-REMUX.Chamako.mkv
Format : Matroska
Format version : Version 4 / Version 2
File size : 45.5 GiB
Duration : 1 h 46 min
Overall bit rate : 61.1 Mb/s
Movie name : Chamako.Net – Dunkirk 4K 2160p
Encoded date : UTC 2018-01-10 15:37:05
Writing application : mkvmerge v7.9.0 (‘Birds’) 64bit
Writing library : libebml v1.3.1 + libmatroska v1.4.2

Video
ID : 1
Format : HEVC
Format/Info : High Efficiency Video Coding
Format profile : Main 10@L5.1@High
Codec ID : V_MPEGH/ISO/HEVC
Duration : 1 h 46 min
Bit rate : 58.2 Mb/s
Width : 3 840 pixels
Height : 2 160 pixels
Display aspect ratio : 16:9
Frame rate mode : Constant
Frame rate : 23.976 (24000/1001) FPS
Color space : YUV
Chroma subsampling : 4:2:0 (Type 2)
Bit depth : 10 bits
Bits/(Pixel*Frame) : 0.293
Stream size : 43.4 GiB (95%)
Title : Chamako.Net – Dunkirk 4K 2160p
Default : Yes
Forced : No
Color range : Limited
Color primaries : BT.2020
Transfer characteristics : PQ
Matrix coefficients : BT.2020 non-constant
Mastering display color primaries : R: x=0.680000 y=0.320000, G: x=0.265000 y=0.690000, B: x=0.150000 y=0.060000, White point: x=0.312700 y=0.329000
Mastering display luminance : min: 0.0050 cd/m2, max: 4000.0000 cd/m2
Maximum Content Light Level : 323 cd/m2
Maximum Frame-Average Light Level : 144 cd/m2

Audio #1
ID : 2
Format : DTS
Format/Info : Digital Theater Systems
Format profile : MA / Core
Mode : 16
Format settings, Endianness : Big
Codec ID : A_DTS
Duration : 1 h 46 min
Bit rate mode : Variable / Constant
Bit rate : 2 411 kb/s / 1 509 kb/s
Channel(s) : 6 channels
Channel positions : Front: L C R, Side: L R, LFE
Sampling rate : 48.0 kHz
Frame rate : 93.750 FPS (512 SPF)
Bit depth : 16 bits
Compression mode : Lossless / Lossy
Stream size : 1.80 GiB (4%)
Title : Chamako.Net – English DTS HD MA
Language : English
Default : Yes
Forced : No

Audio #2
ID : 3
Format : AC-3
Format/Info : Audio Coding 3
Format settings, Endianness : Big
Codec ID : A_AC3
Duration : 1 h 40 min
Bit rate mode : Constant
Bit rate : 448 kb/s
Channel(s) : 6 channels
Channel positions : Front: L C R, Side: L R, LFE
Sampling rate : 48.0 kHz
Frame rate : 31.250 FPS (1536 SPF)
Bit depth : 16 bits
Compression mode : Lossy
Stream size : 322 MiB (1%)
Title : Chamako.Net – LATINO
Service kind : Complete Main
Default : No
Forced : No

Text #1
ID : 4
Format : PGS
Muxing mode : zlib
Codec ID : S_HDMV/PGS
Codec ID/Info : Picture based subtitle format used on BDs/HD-DVDs
Duration : 1 h 45 min
Bit rate : 6 313 b/s
Count of elements : 1718
Stream size : 4.76 MiB (0%)
Title : Chamako.Net – English (SDH)
Language : English
Default : No
Forced : No

Text #2
ID : 5
Format : PGS
Muxing mode : zlib
Codec ID : S_HDMV/PGS
Codec ID/Info : Picture based subtitle format used on BDs/HD-DVDs
Duration : 21 min 17 s
Bit rate : 65 b/s
Count of elements : 4
Stream size : 10.2 KiB (0%)
Title : Chamako.Net – Spanish COmpletos
Language : Spanish
Default : No
Forced : No

Text #3
ID : 6
Format : PGS
Muxing mode : zlib
Codec ID : S_HDMV/PGS
Codec ID/Info : Picture based subtitle format used on BDs/HD-DVDs
Duration : 1 h 38 min
Bit rate : 5 020 b/s
Count of elements : 1420
Stream size : 3.54 MiB (0%)
Title : Chamako.Net – Spanish Forzados
Language : Spanish
Default : Yes
Forced : Yes

Menu
00:00:00.000 : en:Chapter 01
00:08:51.364 : en:Chapter 02
00:20:13.754 : en:Chapter 03
00:29:07.621 : en:Chapter 04
00:42:35.261 : en:Chapter 05
00:52:48.207 : en:Chapter 06
01:04:32.827 : en:Chapter 07
01:12:50.825 : en:Chapter 08
01:25:55.025 : en:Chapter 09
01:33:23.348 : en:Chapter 10
01:39:13.906 : en:Chapter 11

DESCARGAR

UPLOADED

http://ul.to/mdgkgc7s
http://ul.to/5np33l8z
http://ul.to/9try1io7
http://ul.to/ni2r72d7
http://ul.to/pkmd6os4
http://ul.to/cmumjbwx
http://ul.to/42khiafj
http://ul.to/f9n5wwxj
http://ul.to/d7gurj85
http://ul.to/of3rsssc
http://ul.to/mry6yy6c
http://ul.to/jcsxhisq
http://ul.to/bgvnfoeq
http://ul.to/0s23g0ix
http://ul.to/8ive8248
http://ul.to/cghskm9p
http://ul.to/xsq4i5vq
http://ul.to/qtu79dun
http://ul.to/ulypscmd
http://ul.to/0o339qte
http://ul.to/rnl8h39m
http://ul.to/67ohjar4
http://ul.to/4hoezq0j
http://ul.to/x8ybyrq2
http://ul.to/l0m1ul8b
http://ul.to/ci2prjmj
http://ul.to/r60vx0lg
http://ul.to/afqenxe4
http://ul.to/f62saad0
http://ul.to/gao39txw
http://ul.to/pfdyfavn
http://ul.to/y3m23gsn
http://ul.to/x7x93nje
http://ul.to/swaxsrza
http://ul.to/nf1uw151
http://ul.to/zd8i8xx5
http://ul.to/roj2w7z3
http://ul.to/uw7z1ad8
http://ul.to/libr5c7r
http://ul.to/784fski1
http://ul.to/dwghv395
http://ul.to/un2r8wch
http://ul.to/x5hpjafs
http://ul.to/zy86uc4g
http://ul.to/huocmuvu
http://ul.to/0d5x6mgp
http://ul.to/bb0q6wkv
http://ul.to/9zvbbl3r
http://ul.to/mh02h3yt
http://ul.to/mb7pa36i

1FICHIER

https://1fichier.com/?iorypn8e9y
https://1fichier.com/?rbte1ihtav
https://1fichier.com/?2bifjg4vy1
https://1fichier.com/?r4qyeklkh3
https://1fichier.com/?q30sbl6zoz
https://1fichier.com/?3fu0qidhuj
https://1fichier.com/?z75hosyxjs
https://1fichier.com/?w6vb9ne0pr
https://1fichier.com/?3311skcugx
https://1fichier.com/?s7yuo3a96y
https://1fichier.com/?o88r2oym7w
https://1fichier.com/?7z61wfcvw8
https://1fichier.com/?p59fz8c3j1
https://1fichier.com/?ysoiesatck
https://1fichier.com/?nk6hbi5fmg
https://1fichier.com/?p3utkpajez
https://1fichier.com/?ih373is9my
https://1fichier.com/?yyazg9sk2n
https://1fichier.com/?z8n9s4j4bc
https://1fichier.com/?p6csu77qr5
https://1fichier.com/?97347hn0oo
https://1fichier.com/?skapayu0kd
https://1fichier.com/?8sp13owcs0
https://1fichier.com/?jiauekxqcx
https://1fichier.com/?x8hu6nb2rx
https://1fichier.com/?eymrc6bwyy
https://1fichier.com/?gt7gxcdfz9
https://1fichier.com/?r0611thrus
https://1fichier.com/?bvd4sly75u
https://1fichier.com/?7xb59o6uvr
https://1fichier.com/?47nruw9ngl
https://1fichier.com/?v8b0ud14r7
https://1fichier.com/?emrn39m6zp
https://1fichier.com/?b5jf596stc
https://1fichier.com/?u65o96y4tt
https://1fichier.com/?2surx5e40s
https://1fichier.com/?ig3jghylph
https://1fichier.com/?s17s5bszzz
https://1fichier.com/?zfm4ok2a1c
https://1fichier.com/?d04y1ch4fh
https://1fichier.com/?i42bj8ksm4
https://1fichier.com/?z4xmgm5yqr
https://1fichier.com/?qkylvw1t0k
https://1fichier.com/?3bvd14p867
https://1fichier.com/?zmgd9ig9n5
https://1fichier.com/?gw9nw1xl32
https://1fichier.com/?s1hlrku2k4
https://1fichier.com/?p81114uuzp
https://1fichier.com/?c6d8qhqbww
https://1fichier.com/?6dx9oi33j4

GOOGLE DRIVE

Lo sentimos, este contenido está visible solamente para usuarios registrados. Click aquí para Registrarse

MEGA

Lo sentimos, este contenido está visible solamente para usuarios registrados. Click aquí para Registrarse

Deja un comentario

Compra premium Uploaded

uploaded

Facebook

Peliculas en 3D

Monsters Univrsity 3D

Pacific Rim 3D

Croods 3D

Star Trek 3D

Guerra Mundial Z 3D

Iron MAN 3 3D

Rip Departamento 3D

Los Pitufos 2 3 3D

Man of Steel 3 3D

Mi Villano favorito 2 3D

Aviones 3D

Turbo 2013 3D

Turbo 2013 3D

Percy Jackson 2013 3D

Gatsby 3D

Epic 3D

Gi Joe 2 3D

Hansel y Gretel 3D

Hansel y Gretel 3D

Oz 3D

The Hobbit 3D

Ilusionautas 3D

Life of Pi 3D

El Origen de los Guardianes 3D

Ralph el Demoledor 3D

Silent Hill Revelation 3D

Monster 3D

Monster 3D

Monster 3D

DREDD 3D 1080P

Brave 3D 1080P

Series en DVD

Spartacus Vengeance Season  2 DVD The Big Bang Theory Season 5 DVD Homeland Season 1 DVD Once Upon a Time Season 1 DVD The Walking Dead Season 2 DVD