El Gran Gatsby (2013) [3D SBS][BDRip 1080p][Español Latino 5.1/Ingles DTS][Sub.Español Forzados 3D]

Por Chamako / hace 4 años / 3 Comentarios ».

gatsby2

Nueva York, años 20. En la alta sociedad norteamericana, llama la atención la presencia de Jay Gatsby, un hombre misterioso e inmensamente rico, al que todos consideran un advenedizo, lo que no impide que acudan a sus fastuosas fiestas en su gran mansión de Long Island. Gatsby vive obsesionado con la idea de recuperar al amor que dejó escapar años atrás. Para ello se hará amigo de su vecino recién llegado, el joven Nick Carraway.


Título original The Great Gatsby
Año 2013
Duración 143 min.
País Australia Australia
Director Baz Luhrmann
Guión Baz Luhrmann, Craig Pearce (Novela: F. Scott Fitzgerald)
Música Craig Armstrong
Fotografía Simon Duggan
RepartoLeonardo DiCaprio, Tobey Maguire, Carey Mulligan, Joel Edgerton, Isla Fisher, Elizabeth Debicki, Amitabh Bachchan, Jason Clarke, Adelaide Clemens, Max Cullen, Steve Bisley, Richard Carter, Vince Colosimo, Brendan Maclean, Kate Mulvany, Callan McAuliffe, Jack Thompson
ProductoraCoproducción Australia-EEUU; Warner Bros. Pictures / Bazmark Films / Red Wagon Productions
Género Drama. Romance | Drama romántico. Años 20. 3-D
Web Oficial http://www.elgrangatsby-es.com





General
Unique ID : 211353821531320376395959241207328864297 (0x9F0143EF9A14E0ECB62CD535B30CF829)
Complete name : The Great Gatsby 3D SBS 1080P Latino By Chaako.mkv
Format : Matroska
Format version : Version 2
File size : 12.8 GiB
Duration : 2h 22mn
Overall bit rate : 12.9 Mbps
Movie name : www.Chamako.Net – The Great Gatsby 2013 3D SBS 1080P Latino
Encoded date : UTC 2013-08-13 06:57:54
Writing application : mkvmerge v3.4.0 (‘Rapunzel’) built on May 15 2010 09:38:20
Writing library : libebml v0.8.0 + libmatroska v0.9.0

Video
ID : 1
Format : AVC
Format/Info : Advanced Video Codec
Format profile : High@L4.1
MultiView_Count : 2
MultiView_Layout : Right Eye
Format settings, CABAC : Yes
Format settings, ReFrames : 4 frames
Codec ID : V_MPEG4/ISO/AVC
Duration : 2h 22mn
Bit rate : 10.7 Mbps
Nominal bit rate : 11.3 Mbps
Width : 1 920 pixels
Height : 1 080 pixels
Display aspect ratio : 16:9
Frame rate mode : Constant
Frame rate : 23.976 fps
Color space : YUV
Chroma subsampling : 4:2:0
Bit depth : 8 bits
Scan type : Progressive
Bits/(Pixel*Frame) : 0.215
Stream size : 10.6 GiB (83%)
Title : www.Chamako.Net – The Great Gatsby 2013
Writing library : x264 core 130 r2273 b3065e6
Encoding settings : cabac=1 / ref=4 / deblock=1:0:0 / analyse=0x3:0x113 / me=umh / subme=8 / psy=1 / psy_rd=1.00:0.00 / mixed_ref=1 / me_range=16 / chroma_me=1 / trellis=1 / 8x8dct=1 / cqm=0 / deadzone=21,11 / fast_pskip=1 / chroma_qp_offset=-2 / threads=12 / lookahead_threads=2 / sliced_threads=0 / nr=0 / decimate=1 / interlaced=0 / bluray_compat=0 / constrained_intra=0 / bframes=3 / b_pyramid=2 / b_adapt=2 / b_bias=0 / direct=3 / weightb=1 / open_gop=0 / weightp=2 / keyint=250 / keyint_min=23 / scenecut=40 / intra_refresh=0 / rc_lookahead=50 / rc=abr / mbtree=1 / bitrate=11300 / ratetol=1.0 / qcomp=0.60 / qpmin=0 / qpmax=69 / qpstep=4 / ip_ratio=1.40 / aq=1:1.00
Language : English
Default : No
Forced : No

Audio #1
ID : 2
Format : DTS
Format/Info : Digital Theater Systems
Mode : 16
Format settings, Endianness : Big
Codec ID : A_DTS
Duration : 2h 22mn
Bit rate mode : Constant
Bit rate : 1 509 Kbps
Channel(s) : 6 channels
Channel positions : Front: L C R, Side: L R, LFE
Sampling rate : 48.0 KHz
Bit depth : 24 bits
Compression mode : Lossy
Delay relative to video : 11ms
Stream size : 1.50 GiB (12%)
Title : www.Chamako.Net – English DtS
Language : English
Default : No
Forced : No

Audio #2
ID : 3
Format : AC-3
Format/Info : Audio Coding 3
Mode extension : CM (complete main)
Format settings, Endianness : Big
Codec ID : A_AC3
Duration : 2h 22mn
Bit rate mode : Constant
Bit rate : 448 Kbps
Channel(s) : 6 channels
Channel positions : Front: L C R, Side: L R, LFE
Sampling rate : 48.0 KHz
Bit depth : 16 bits
Compression mode : Lossy
Stream size : 455 MiB (3%)
Title : www.Chamako.Net. Latino 5.1
Language : Spanish
Default : Yes
Forced : No

Text #1
ID : 4
Format : ASS
Codec ID : S_TEXT/ASS
Codec ID/Info : Advanced Sub Station Alpha
Compression mode : Lossless
Title : www.Chamako.Net – Spanish 3D
Language : Spanish
Default : No
Forced : No

Text #2
ID : 5
Format : ASS
Codec ID : S_TEXT/ASS
Codec ID/Info : Advanced Sub Station Alpha
Compression mode : Lossless
Title : www.Chamako.Net – Spanish Forzados 3D
Language : Spanish
Default : No
Forced : Yes

Menu
00:00:00.000 : en:00:00:00.000
00:11:04.080 : en:00:11:04.080
00:22:55.833 : en:00:22:55.833
00:34:26.898 : en:00:34:26.898
00:44:48.728 : en:00:44:48.728
00:55:36.333 : en:00:55:36.333
01:06:20.643 : en:01:06:20.643
01:18:27.786 : en:01:18:27.786
01:31:13.927 : en:01:31:13.927
01:44:11.954 : en:01:44:11.954
01:56:35.155 : en:01:56:35.155
02:05:46.122 : en:02:05:46.122
02:09:40.982 : en:02:09:40.982

FREAKSHARE

http://freakshare.com/files/9a5mv39l/GG3DSBSChamako.part01.rar.html
http://freakshare.com/files/dctkdjjh/GG3DSBSChamako.part01.rev.html
http://freakshare.com/files/s38uull8/GG3DSBSChamako.part02.rar.html
http://freakshare.com/files/w9qlmotv/GG3DSBSChamako.part02.rev.html
http://freakshare.com/files/frqpn80k/GG3DSBSChamako.part03.rar.html
http://freakshare.com/files/dp511x1i/GG3DSBSChamako.part04.rar.html
http://freakshare.com/files/csjg92ht/GG3DSBSChamako.part05.rar.html
http://freakshare.com/files/3j68l0ey/GG3DSBSChamako.part06.rar.html
http://freakshare.com/files/9rp0h0zv/GG3DSBSChamako.part07.rar.html
http://freakshare.com/files/fym3k8o2/GG3DSBSChamako.part08.rar.html
http://freakshare.com/files/dionx1zr/GG3DSBSChamako.part09.rar.html
http://freakshare.com/files/je81tk5q/GG3DSBSChamako.part10.rar.html
http://freakshare.com/files/ry8y2p38/GG3DSBSChamako.part11.rar.html
http://freakshare.com/files/98e6t8hi/GG3DSBSChamako.part12.rar.html
http://freakshare.com/files/chebkuex/GG3DSBSChamako.part13.rar.html
http://freakshare.com/files/fxd8fwsd/GG3DSBSChamako.part14.rar.html
http://freakshare.com/files/rixa82gl/GG3DSBSChamako.part15.rar.html
http://freakshare.com/files/r1stww98/GG3DSBSChamako.part16.rar.html
http://freakshare.com/files/omf5jl2s/GG3DSBSChamako.part17.rar.html
http://freakshare.com/files/2my8w7qj/GG3DSBSChamako.part18.rar.html
http://freakshare.com/files/j4idccrj/GG3DSBSChamako.part19.rar.html

UPLOADED

http://ul.to/302wvnh2
http://ul.to/q8y6fekt
http://ul.to/gat4o8wa
http://ul.to/ai18cd9t
http://ul.to/du02qtf6
http://ul.to/uiu1eoj8
http://ul.to/zyphxdtn
http://ul.to/863dus99
http://ul.to/1q5rw5gm
http://ul.to/i5keukio
http://ul.to/scnv04r9
http://ul.to/b425whco
http://ul.to/dubzrtrq
http://ul.to/vkmzmg4u
http://ul.to/soqwkpbm
http://ul.to/ry2d5uty
http://ul.to/r0e3k2dk
http://ul.to/chjwy801
http://ul.to/azvulep5
http://ul.to/z02v6u53
http://ul.to/hzzl3o21

PUTLOCKER
Lo sentimos, este contenido está visible solamente para usuarios registrados. Click aquí para Registrarse

MEGA
Lo sentimos, este contenido está visible solamente para usuarios registrados. Click aquí para Registrarse


La Contraseña para todos los archivos es “chamako” (sin comillas y todo minusculas)

Apoyame comprando tu cuenta premium de estos servidores

Compra tu cuenta premium cada mes >>> FreakShare

Compra tu cuenta premium cada mes  >>> Uploaded

3 Comentarios

Deja un comentario

Compra premium Uploaded

uploaded

Facebook

Peliculas en 3D

Monsters Univrsity 3D

Pacific Rim 3D

Croods 3D

Star Trek 3D

Guerra Mundial Z 3D

Iron MAN 3 3D

Rip Departamento 3D

Los Pitufos 2 3 3D

Man of Steel 3 3D

Mi Villano favorito 2 3D

Aviones 3D

Turbo 2013 3D

Turbo 2013 3D

Percy Jackson 2013 3D

Gatsby 3D

Epic 3D

Gi Joe 2 3D

Hansel y Gretel 3D

Hansel y Gretel 3D

Oz 3D

The Hobbit 3D

Ilusionautas 3D

Life of Pi 3D

El Origen de los Guardianes 3D

Ralph el Demoledor 3D

Silent Hill Revelation 3D

Monster 3D

Monster 3D

Monster 3D

DREDD 3D 1080P

Brave 3D 1080P

Series en DVD

Spartacus Vengeance Season  2 DVD The Big Bang Theory Season 5 DVD Homeland Season 1 DVD Once Upon a Time Season 1 DVD The Walking Dead Season 2 DVD