Epic: El mundo secreto (2013) [3D SBS][BDRip 1080p][Español Latino 5.1/Ingles DTS][Subs.3D]

Por Chamako / hace 3 años / 2 Comentarios ».

epic

Cuenta la historia de un grupo de bichos que intentan salvar un jardín y se enfrentan a una diabólica araña, buscando para ello la ayuda de los míticos Hombres Hoja.


Título: Epic: El mundo secreto
Título original: Epic
País: USA
Estreno en USA: 24/05/2013
Estreno en España: 30/08/2013
Productora: 20th Century Fox, Blue Sky Studios
Director: Chris Wedge
Guión:
Reparto: (Voces de) Beyonce Knowles, Colin Farrell, Josh Hutcherson, Amanda Seyfried, Johnny Knoxville, Aziz Ansari, Pitbull, Jason Sudeikis, Blake Anderson, Judah Friedlander, Steven Tyler


c2013-08-10-01h02m12s201.png
c2013-08-10-01h01m06s19.png
c2013-08-10-01h01m24s248.png
c2013-08-10-01h02m33s169.png

General
Unique ID : 201690699628252268345149066818161611416 (0x97BC373E226A6C2790E2ED3139961298)
Complete name : Epic 2013 1080p Bluray Latino By Chamako.mkv
Format : Matroska
Format version : Version 2
File size : 7.31 GiB
Duration : 1h 42mn
Overall bit rate : 10.2 Mbps
Movie name : www.Chamako.Net – Epic El Reino Secreto (2013) 3D SBS 1080P Latino
Encoded date : UTC 2013-08-10 07:38:56
Writing application : mkvmerge v3.4.0 (‘Rapunzel’) built on May 15 2010 09:38:20
Writing library : libebml v0.8.0 + libmatroska v0.9.0

Video
ID : 1
Format : AVC
Format/Info : Advanced Video Codec
Format profile : High@L4.1
MultiView_Count : 2
MultiView_Layout : Right Eye
Format settings, CABAC : Yes
Format settings, ReFrames : 4 frames
Codec ID : V_MPEG4/ISO/AVC
Duration : 1h 42mn
Bit rate : 8 050 Kbps
Width : 1 920 pixels
Height : 1 080 pixels
Display aspect ratio : 16:9
Frame rate mode : Constant
Frame rate : 23.976 fps
Color space : YUV
Chroma subsampling : 4:2:0
Bit depth : 8 bits
Scan type : Progressive
Bits/(Pixel*Frame) : 0.162
Stream size : 5.76 GiB (79%)
Title : www.Chamako.Net – Epic 2013 3D SBS 1080P
Writing library : x264 core 135 r2345 f0c1c53
Encoding settings : cabac=1 / ref=4 / deblock=1:-3:-3 / analyse=0x3:0x113 / me=umh / subme=10 / psy=1 / psy_rd=1.00:0.15 / mixed_ref=1 / me_range=32 / chroma_me=1 / trellis=2 / 8x8dct=1 / cqm=0 / deadzone=21,11 / fast_pskip=1 / chroma_qp_offset=-3 / threads=36 / lookahead_threads=3 / sliced_threads=0 / nr=0 / decimate=1 / interlaced=0 / bluray_compat=0 / constrained_intra=0 / bframes=6 / b_pyramid=2 / b_adapt=1 / b_bias=0 / direct=3 / weightb=1 / open_gop=0 / weightp=2 / keyint=250 / keyint_min=23 / scenecut=40 / intra_refresh=0 / rc_lookahead=40 / rc=crf / mbtree=1 / crf=16.0 / qcomp=0.60 / qpmin=10 / qpmax=69 / qpstep=4 / vbv_maxrate=40000 / vbv_bufsize=30000 / crf_max=0.0 / nal_hrd=none / ip_ratio=1.40 / aq=1:1.00
Default : No
Forced : No

Audio #1
ID : 2
Format : AC-3
Format/Info : Audio Coding 3
Mode extension : CM (complete main)
Format settings, Endianness : Big
Codec ID : A_AC3
Duration : 1h 42mn
Bit rate mode : Constant
Bit rate : 448 Kbps
Channel(s) : 6 channels
Channel positions : Front: L C R, Side: L R, LFE
Sampling rate : 48.0 KHz
Bit depth : 16 bits
Compression mode : Lossy
Stream size : 328 MiB (4%)
Title : www.Chamako.Net – Latino 5.1
Language : Spanish
Default : No
Forced : No

Audio #2
ID : 3
Format : DTS
Format/Info : Digital Theater Systems
Format profile : ES
Mode : 16
Format settings, Endianness : Big
Codec ID : A_DTS
Duration : 1h 42mn
Bit rate mode : Constant
Bit rate : 1 509 Kbps
Channel(s) : 6 channels
Channel positions : Front: L C R, Side: L R, LFE
Sampling rate : 48.0 KHz
Bit depth : 24 bits
Compression mode : Lossy
Delay relative to video : 11ms
Stream size : 1.08 GiB (15%)
Title : www.Chamako.Net – English
Language : English
Default : No
Forced : No

Text
ID : 4
Format : ASS
Codec ID : S_TEXT/ASS
Codec ID/Info : Advanced Sub Station Alpha
Compression mode : Lossless
Title : www.Chamako.Net – Spanish 3D
Language : Spanish
Default : Yes
Forced : No

Menu
00:00:00.000 : en:00:00:00.000
00:04:48.205 : en:00:04:48.205
00:09:49.589 : en:00:09:49.589
00:13:05.535 : en:00:13:05.535
00:16:50.051 : en:00:16:50.051
00:20:36.193 : en:00:20:36.193
00:24:09.490 : en:00:24:09.490
00:28:17.237 : en:00:28:17.237
00:31:31.848 : en:00:31:31.848
00:34:06.586 : en:00:34:06.586
00:38:21.591 : en:00:38:21.591
00:43:17.428 : en:00:43:17.428
00:44:58.029 : en:00:44:58.029
00:47:04.739 : en:00:47:04.739
00:49:07.945 : en:00:49:07.945
00:52:40.699 : en:00:52:40.699
00:56:28.885 : en:00:56:28.885
00:59:52.214 : en:00:59:52.214
01:03:27.387 : en:01:03:27.387
01:07:48.940 : en:01:07:48.940
01:14:36.472 : en:01:14:36.472
01:18:24.950 : en:01:18:24.950
01:20:13.100 : en:01:20:13.100
01:24:03.038 : en:01:24:03.038
01:25:19.281 : en:01:25:19.281
01:27:34.040 : en:01:27:34.040
01:32:05.520 : en:01:32:05.520
01:34:12.480 : en:01:34:12.480

FREAKSHARE

http://freakshare.com/files/ap3ibxkz/E21283U3SBSChamako.part01.rar.html
http://freakshare.com/files/c2pir3hm/E21283U3SBSChamako.part01.rev.html
http://freakshare.com/files/z7q4qxtr/E21283U3SBSChamako.part02.rar.html
http://freakshare.com/files/738nli70/E21283U3SBSChamako.part02.rev.html
http://freakshare.com/files/twywbubt/E21283U3SBSChamako.part03.rar.html
http://freakshare.com/files/uwldlgbf/E21283U3SBSChamako.part04.rar.html
http://freakshare.com/files/0frbhfon/E21283U3SBSChamako.part05.rar.html
http://freakshare.com/files/puknjivd/E21283U3SBSChamako.part06.rar.html
http://freakshare.com/files/vmud8ujl/E21283U3SBSChamako.part07.rar.html
http://freakshare.com/files/r8rzmk32/E21283U3SBSChamako.part08.rar.html
http://freakshare.com/files/lewk4oea/E21283U3SBSChamako.part09.rar.html
http://freakshare.com/files/q18j5hnp/E21283U3SBSChamako.part10.rar.html
http://freakshare.com/files/hh6fcaqa/E21283U3SBSChamako.part11.rar.html
http://freakshare.com/files/q3f4988u/E21283U3SBSChamako.part12.rar.html
http://freakshare.com/files/bhw54ivd/E21283U3SBSChamako.part13.rar.html
http://freakshare.com/files/ufdn2vwg/E21283U3SBSChamako.part14.rar.html
http://freakshare.com/files/eryz10yb/E21283U3SBSChamako.part15.rar.html

UPLOADED

http://ul.to/38dpwflb
http://ul.to/baycsj6p
http://ul.to/fjllqnp7
http://ul.to/h82pklqf
http://ul.to/cwhk2mqp
http://ul.to/jnzry1ah
http://ul.to/bkrcod46
http://ul.to/riec2vj2
http://ul.to/wl5bk5i6
http://ul.to/o86corsv
http://ul.to/ebuxocuw
http://ul.to/ujg61tgf
http://ul.to/1q0ehrga
http://ul.to/946fs1qd
http://ul.to/r5x34m8k
http://ul.to/4nn98i28
http://ul.to/833px3hr

PUTLOCKER
Lo sentimos, este contenido está visible solamente para usuarios registrados. Click aquí para Registrarse

MEGA
Lo sentimos, este contenido está visible solamente para usuarios registrados. Click aquí para Registrarse


La Contraseña para todos los archivos es “chamako” (sin comillas y todo minusculas)

Apoyame comprando tu cuenta premium de estos servidores

Compra tu cuenta premium cada mes >>> FreakShare

Compra tu cuenta premium cada mes  >>> Uploaded

2 Comentarios

Deja un comentario

Compra premium Uploaded

uploaded

Facebook

Peliculas en 3D

Monsters Univrsity 3D

Pacific Rim 3D

Croods 3D

Star Trek 3D

Guerra Mundial Z 3D

Iron MAN 3 3D

Rip Departamento 3D

Los Pitufos 2 3 3D

Man of Steel 3 3D

Mi Villano favorito 2 3D

Aviones 3D

Turbo 2013 3D

Turbo 2013 3D

Percy Jackson 2013 3D

Gatsby 3D

Epic 3D

Gi Joe 2 3D

Hansel y Gretel 3D

Hansel y Gretel 3D

Oz 3D

The Hobbit 3D

Ilusionautas 3D

Life of Pi 3D

El Origen de los Guardianes 3D

Ralph el Demoledor 3D

Silent Hill Revelation 3D

Monster 3D

Monster 3D

Monster 3D

DREDD 3D 1080P

Brave 3D 1080P

Series en DVD

Spartacus Vengeance Season  2 DVD The Big Bang Theory Season 5 DVD Homeland Season 1 DVD Once Upon a Time Season 1 DVD The Walking Dead Season 2 DVD