G.I. Joe Retaliation (2013) [3D SBS][BDRip 1080p][Español Latino 5.1/Ingles 5.1][Sub.Español Completos/Forzados 3D]

Por Chamako / hace 4 años / 9 Comentarios ».

gi JOE 3d
Los GI Joe no sólo tendrán que vérselas con su enemigo mortal, la organización criminal Cobra, sino que además se verán obligados a lidiar con las amenazas y traiciones dentro de su propio gobierno, que ponen en peligro su existencia.


Año: 2013
Duración: 110 min.
País: Estados Unidos
Director: Jon Chu
Guión: Rhett Reese, Paul Wernick
Música: Henry Jackman
Fotografía: Stephen F. Windon
Reparto: Channing Tatum, Ray Park, Lee Byung-hun, Dwayne “The Rock” Johnson, Bruce Willis, Elodie Yung, Adrianne Palicki, Joseph Mazello, D.J. Cotrona, Ray Stevenson, Arnold Vosloo, RZA, Walton Goggins, Jonatan Pryce
Productora: Paramount Pictures / Hasbro / Silver Watch Productions / Skydance Productions
Género: Acción. Ciencia ficción | Secuela. Videojuego
Web Oficial:http://www.gijoe-lavenganza.es/





General
Unique ID : 210598642230539979210621946839824832103 (0x9E6FD2B8C5D5FB8797E77D67A1D79667)
Complete name : G.I.Joe.Retaliation.2013.3D.1080p.SBS.Latino.By.Chamako.mkv
Format : Matroska
Format version : Version 2
File size : 9.62 GiB
Duration : 1h 50mn
Overall bit rate : 12.5 Mbps
Movie name : www.Chamako.Net – G.I Joe Retaliation 2013 3D SBS 1080P Latino
Encoded date : UTC 2013-07-17 20:07:45
Writing application : mkvmerge v3.4.0 (‘Rapunzel’) built on May 15 2010 09:38:20
Writing library : libebml v0.8.0 + libmatroska v0.9.0

Video
ID : 1
Format : AVC
Format/Info : Advanced Video Codec
Format profile : High@L4.1
MultiView_Count : 2
MultiView_Layout : Right Eye
Format settings, CABAC : Yes
Format settings, ReFrames : 4 frames
Codec ID : V_MPEG4/ISO/AVC
Duration : 1h 50mn
Bit rate : 11.2 Mbps
Width : 1 920 pixels
Height : 1 080 pixels
Display aspect ratio : 16:9
Frame rate mode : Constant
Frame rate : 23.976 fps
Color space : YUV
Chroma subsampling : 4:2:0
Bit depth : 8 bits
Scan type : Progressive
Bits/(Pixel*Frame) : 0.224
Stream size : 8.59 GiB (89%)
Title : www.Chamako.Net – G.I Joe Retaliation 2013 3D
Writing library : x264 core 135 r2345 f0c1c53
Encoding settings : cabac=1 / ref=4 / deblock=1:-3:-3 / analyse=0x3:0x113 / me=umh / subme=10 / psy=1 / psy_rd=1.00:0.15 / mixed_ref=1 / me_range=32 / chroma_me=1 / trellis=2 / 8x8dct=1 / cqm=0 / deadzone=21,11 / fast_pskip=1 / chroma_qp_offset=-3 / threads=36 / lookahead_threads=3 / sliced_threads=0 / nr=0 / decimate=1 / interlaced=0 / bluray_compat=0 / constrained_intra=0 / bframes=6 / b_pyramid=2 / b_adapt=1 / b_bias=0 / direct=3 / weightb=1 / open_gop=0 / weightp=2 / keyint=250 / keyint_min=23 / scenecut=40 / intra_refresh=0 / rc_lookahead=40 / rc=crf / mbtree=1 / crf=18.0 / qcomp=0.60 / qpmin=10 / qpmax=69 / qpstep=4 / vbv_maxrate=40000 / vbv_bufsize=30000 / crf_max=0.0 / nal_hrd=none / ip_ratio=1.40 / aq=1:1.00
Default : No
Forced : No

Audio #1
ID : 2
Format : AC-3
Format/Info : Audio Coding 3
Mode extension : CM (complete main)
Format settings, Endianness : Big
Codec ID : A_AC3
Duration : 1h 50mn
Bit rate mode : Constant
Bit rate : 448 Kbps
Channel(s) : 6 channels
Channel positions : Front: L C R, Side: L R, LFE
Sampling rate : 48.0 KHz
Bit depth : 16 bits
Compression mode : Lossy
Stream size : 353 MiB (4%)
Title : www.Chamako.Net – Latino 5.1
Language : Spanish
Default : Yes
Forced : No

Audio #2
ID : 3
Format : AC-3
Format/Info : Audio Coding 3
Mode extension : CM (complete main)
Format settings, Endianness : Big
Codec ID : A_AC3
Duration : 1h 50mn
Bit rate mode : Constant
Bit rate : 640 Kbps
Channel(s) : 6 channels
Channel positions : Front: L C R, Side: L R, LFE
Sampling rate : 48.0 KHz
Bit depth : 16 bits
Compression mode : Lossy
Stream size : 505 MiB (5%)
Title : www.Chamako.Net – English
Language : English
Default : No
Forced : No

Text #1
ID : 4
Format : ASS
Codec ID : S_TEXT/ASS
Codec ID/Info : Advanced Sub Station Alpha
Compression mode : Lossless
Title : www.Chamako.Net – Spanish Forzados
Language : Spanish
Default : Yes
Forced : Yes

Text #2
ID : 5
Format : ASS
Codec ID : S_TEXT/ASS
Codec ID/Info : Advanced Sub Station Alpha
Compression mode : Lossless
Title : www.Chamako.Net – Spanish Completos
Language : Spanish
Default : No
Forced : No

Menu
00:00:00.000 : en:00:00:00.000
00:06:08.243 : en:00:06:08.243
00:12:52.313 : en:00:12:52.313
00:17:35.471 : en:00:17:35.471
00:25:37.369 : en:00:25:37.369
00:30:56.188 : en:00:30:56.188
00:39:00.880 : en:00:39:00.880
00:42:40.975 : en:00:42:40.975
00:48:31.242 : en:00:48:31.242
00:54:02.990 : en:00:54:02.990
01:01:46.536 : en:01:01:46.536
01:07:34.676 : en:01:07:34.676
01:13:56.807 : en:01:13:56.807
01:17:54.461 : en:01:17:54.461
01:23:45.979 : en:01:23:45.979
01:31:12.759 : en:01:31:12.759
01:41:13.359 : en:01:41:13.359

FREAKSHARE

http://freakshare.com/files/71umb328/GJ2SBSChamako.part01.rar.html
http://freakshare.com/files/7v14fswg/GJ2SBSChamako.part01.rev.html
http://freakshare.com/files/hpo9dqwi/GJ2SBSChamako.part02.rar.html
http://freakshare.com/files/1fz1mflb/GJ2SBSChamako.part02.rev.html
http://freakshare.com/files/s8ln4x16/GJ2SBSChamako.part03.rar.html
http://freakshare.com/files/zoh8bw5z/GJ2SBSChamako.part04.rar.html
http://freakshare.com/files/ril64mlr/GJ2SBSChamako.part05.rar.html
http://freakshare.com/files/lvufl5kx/GJ2SBSChamako.part06.rar.html
http://freakshare.com/files/yylczakw/GJ2SBSChamako.part07.rar.html
http://freakshare.com/files/4pffmflp/GJ2SBSChamako.part08.rar.html
http://freakshare.com/files/xyryvu47/GJ2SBSChamako.part09.rar.html
http://freakshare.com/files/ih45hqwn/GJ2SBSChamako.part10.rar.html
http://freakshare.com/files/luglj1pc/GJ2SBSChamako.part11.rar.html
http://freakshare.com/files/j4nx8rtg/GJ2SBSChamako.part12.rar.html
http://freakshare.com/files/rohy6dpr/GJ2SBSChamako.part13.rar.html
http://freakshare.com/files/oj69xfv2/GJ2SBSChamako.part14.rar.html
http://freakshare.com/files/1qg0v9m9/GJ2SBSChamako.part15.rar.html
http://freakshare.com/files/pyolv3nz/GJ2SBSChamako.part16.rar.html
http://freakshare.com/files/3y8b3a1u/GJ2SBSChamako.part17.rar.html

UPLOADED

http://ul.to/fdqt4qv4
http://ul.to/sxoqfdex
http://ul.to/fnvmxn56
http://ul.to/cnken61r
http://ul.to/0qvxleve
http://ul.to/xmrh1b6i
http://ul.to/nwodd7up
http://ul.to/8gjpvisl
http://ul.to/45b08q24
http://ul.to/l9b98fbi
http://ul.to/yfkafxpd
http://ul.to/il0u3axp
http://ul.to/b7pt8s2a
http://ul.to/ue9am5qz
http://ul.to/tw9mclao
http://ul.to/3nakqd41
http://ul.to/9315c4u0
http://ul.to/wf6973ig
http://ul.to/hpaf1mm8

PUTLOCKER
Lo sentimos, este contenido está visible solamente para usuarios registrados. Click aquí para Registrarse

MEGA

Lo sentimos, este contenido está visible solamente para usuarios registrados. Click aquí para Registrarse

La Contraseña para todos los archivos es “chamako” (sin comillas y todo minusculas)

Apoyame comprando tu cuenta premium de estos servidores

Compra tu cuenta premium cada mes >>> FreakShare

Compra tu cuenta premium cada mes  >>> Uploaded

9 Comentarios

Deja un comentario

Compra premium Uploaded

uploaded

Facebook

Peliculas en 3D

Monsters Univrsity 3D

Pacific Rim 3D

Croods 3D

Star Trek 3D

Guerra Mundial Z 3D

Iron MAN 3 3D

Rip Departamento 3D

Los Pitufos 2 3 3D

Man of Steel 3 3D

Mi Villano favorito 2 3D

Aviones 3D

Turbo 2013 3D

Turbo 2013 3D

Percy Jackson 2013 3D

Gatsby 3D

Epic 3D

Gi Joe 2 3D

Hansel y Gretel 3D

Hansel y Gretel 3D

Oz 3D

The Hobbit 3D

Ilusionautas 3D

Life of Pi 3D

El Origen de los Guardianes 3D

Ralph el Demoledor 3D

Silent Hill Revelation 3D

Monster 3D

Monster 3D

Monster 3D

DREDD 3D 1080P

Brave 3D 1080P

Series en DVD

Spartacus Vengeance Season  2 DVD The Big Bang Theory Season 5 DVD Homeland Season 1 DVD Once Upon a Time Season 1 DVD The Walking Dead Season 2 DVD