Guerra Mundial Z (2013) [3D SBS][BDRip 1080p][Español Latino 5.1/Ingles DTS][Sub.Español Completos y Forzados 3D]

escrito por Chamako el 8 September 2013

7 comentarios

Un experto investigador de las Naciones Unidas (Brad Pitt) es forzado a tratar de parar lo que podría ser el fin del mundo en una carrera contra el tiempo y el destino. La destrucción a la que se ve sometida la raza humana le hace recorrer el mundo entero buscando respuestas sobre cómo parar la horrible pandemia intentando salvar las vidas de millones de desconocidos así como la de su propia familia.


Título: Guerra Mundial Z
Título original: World War Z
País: USA
Estreno en USA: 21/06/2013
Estreno en España: 02/08/2013
Productora: Paramount Pictures
Director: Marc Forster
Guión: Matthew Michael Carnahan, Damon Lindelof
Reparto: Brad Pitt, Mireille Enos, Eric West, Matthew Fox, David Morse, James Badge Dale, David Andrews, Michiel Huisman, Julian Seager, Elyes Gabel, Julia Levy-Boeken, Iván Kamarás, Trevor White, Sarah Sharman, Lee Nicholas Harris
Calificación: No recomendada para menores de 16 años


c2013-09-08-17h04m21s238.png
c2013-09-08-17h07m13s172.png
c2013-09-08-17h10m13s170.png
c2013-09-08-17h10m42s212.png

General
Unique ID : 199675591666071583018050151705339844275 (0x96381EBFE03551E2A11F27E8901156B3)
Complete name : World.War.Z.3D.2013.1080p.BluRay.Half-SBS.Latino.5.1.Chamako.mkv
Format : Matroska
Format version : Version 2
File size : 12.3 GiB
Duration : 1h 56mn
Overall bit rate : 15.2 Mbps
Movie name : www.Chamako.Net – Guerra Mundial Z (2013) 3D SBS 1080P Latino 5.1
Encoded date : UTC 2013-09-10 02:45:19
Writing application : mkvmerge v3.4.0 (‘Rapunzel’) built on May 15 2010 09:38:20
Writing library : libebml v0.8.0 + libmatroska v0.9.0

Video
ID : 1
Format : AVC
Format/Info : Advanced Video Codec
Format profile : High@L4.1
MultiView_Count : 2
MultiView_Layout : Right Eye
Format settings, CABAC : Yes
Format settings, ReFrames : 4 frames
Codec ID : V_MPEG4/ISO/AVC
Duration : 1h 56mn
Bit rate : 13.4 Mbps
Width : 1 920 pixels
Height : 1 080 pixels
Display aspect ratio : 16:9
Frame rate mode : Constant
Frame rate : 23.976 fps
Color space : YUV
Chroma subsampling : 4:2:0
Bit depth : 8 bits
Scan type : Progressive
Bits/(Pixel*Frame) : 0.270
Stream size : 10.4 GiB (84%)
Title : www.Chamako.Net – Guerra Mundial Z
Writing library : x264 core 130 r2273 b3065e6
Encoding settings : cabac=1 / ref=4 / deblock=1:0:0 / analyse=0×3:0×113 / me=umh / subme=8 / psy=1 / psy_rd=1.00:0.00 / mixed_ref=1 / me_range=16 / chroma_me=1 / trellis=1 / 8x8dct=1 / cqm=0 / deadzone=21,11 / fast_pskip=1 / chroma_qp_offset=-2 / threads=12 / lookahead_threads=2 / sliced_threads=0 / nr=0 / decimate=1 / interlaced=0 / bluray_compat=0 / constrained_intra=0 / bframes=3 / b_pyramid=2 / b_adapt=2 / b_bias=0 / direct=3 / weightb=1 / open_gop=0 / weightp=2 / keyint=250 / keyint_min=23 / scenecut=40 / intra_refresh=0 / rc_lookahead=50 / rc=abr / mbtree=1 / bitrate=13400 / ratetol=1.0 / qcomp=0.60 / qpmin=0 / qpmax=69 / qpstep=4 / ip_ratio=1.40 / aq=1:1.00
Language : English
Default : No
Forced : No

Audio #1
ID : 2
Format : AC-3
Format/Info : Audio Coding 3
Mode extension : CM (complete main)
Format settings, Endianness : Big
Codec ID : A_AC3
Duration : 1h 56mn
Bit rate mode : Constant
Bit rate : 640 Kbps
Channel(s) : 6 channels
Channel positions : Front: L C R, Side: L R, LFE
Sampling rate : 48.0 KHz
Bit depth : 16 bits
Compression mode : Lossy
Stream size : 531 MiB (4%)
Title : www.Chamako.Net – Latino 5.1
Language : Spanish
Default : Yes
Forced : No

Audio #2
ID : 3
Format : DTS
Format/Info : Digital Theater Systems
Mode : 16
Format settings, Endianness : Big
Codec ID : A_DTS
Duration : 1h 56mn
Bit rate mode : Constant
Bit rate : 1 509 Kbps
Channel(s) : 6 channels
Channel positions : Front: L C R, Side: L R, LFE
Sampling rate : 48.0 KHz
Bit depth : 24 bits
Compression mode : Lossy
Delay relative to video : 11ms
Stream size : 1.22 GiB (10%)
Title : www.Chamako.Net – English DTS
Language : English
Default : No
Forced : No

Text
ID : 4
Format : ASS
Codec ID : S_TEXT/ASS
Codec ID/Info : Advanced Sub Station Alpha
Compression mode : Lossless
Title : www.Chamako.Net – Spanish Completos
Language : Spanish
Default : No
Forced : No

Menu
00:00:00.000 : en:00:00:00.000
00:05:05.180 : en:00:05:05.180
00:13:04.659 : en:00:13:04.659
00:20:31.188 : en:00:20:31.188
00:27:02.579 : en:00:27:02.579
00:32:38.039 : en:00:32:38.039
00:39:35.331 : en:00:39:35.331
00:49:06.152 : en:00:49:06.152
00:55:22.027 : en:00:55:22.027
01:01:41.239 : en:01:01:41.239
01:09:18.654 : en:01:09:18.654
01:17:03.035 : en:01:17:03.035
01:22:09.842 : en:01:22:09.842
01:27:51.558 : en:01:27:51.558
01:36:41.587 : en:01:36:41.587
01:45:14.099 : en:01:45:14.099
01:48:46.645 : en:01:48:46.645

Audio Latino 5.1 Solo para el 3D

http://freakshare.com/files/jyeil2va/GZ.AC3.html

http://www.putlocker.com/file/F12F2B43B1213ADC

http://ul.to/9nmute0o

FREAKSHARE

http://freakshare.com/files/t91xziwe/R23J8R9323DChamako.part01.rar.html

http://freakshare.com/files/h2b3phww/R23J8R9323DChamako.part01.rev.html

http://freakshare.com/files/kkx1xuq0/R23J8R9323DChamako.part02.rar.html

http://freakshare.com/files/18hbid64/R23J8R9323DChamako.part02.rev.html

http://freakshare.com/files/kd4w6w8f/R23J8R9323DChamako.part03.rar.html

http://freakshare.com/files/mlzqdj9b/R23J8R9323DChamako.part04.rar.html

http://freakshare.com/files/vtb8kgv0/R23J8R9323DChamako.part05.rar.html

http://freakshare.com/files/5ezf5don/R23J8R9323DChamako.part06.rar.html

http://freakshare.com/files/87123404/R23J8R9323DChamako.part07.rar.html

http://freakshare.com/files/5cjzjlww/R23J8R9323DChamako.part08.rar.html

http://freakshare.com/files/kn8m2vby/R23J8R9323DChamako.part09.rar.html

http://freakshare.com/files/g9pag8mc/R23J8R9323DChamako.part10.rar.html

http://freakshare.com/files/bbk9xcoz/R23J8R9323DChamako.part11.rar.html

http://freakshare.com/files/gbfd3oce/R23J8R9323DChamako.part12.rar.html

http://freakshare.com/files/tx7ch9wf/R23J8R9323DChamako.part13.rar.html

http://freakshare.com/files/7niq6sa8/R23J8R9323DChamako.part14.rar.html

http://freakshare.com/files/4pv1b92z/R23J8R9323DChamako.part15.rar.html

http://freakshare.com/files/5n7bxv0c/R23J8R9323DChamako.part16.rar.html

http://freakshare.com/files/cgdate73/R23J8R9323DChamako.part17.rar.html

http://freakshare.com/files/1sddi1vm/R23J8R9323DChamako.part18.rar.html

http://freakshare.com/files/s9ttm5yh/R23J8R9323DChamako.part19.rar.html

http://freakshare.com/files/kce69qa4/R23J8R9323DChamako.part20.rar.html

http://freakshare.com/files/macmxabu/R23J8R9323DChamako.part21.rar.html

http://freakshare.com/files/f8jpdsli/R23J8R9323DChamako.part22.rar.html

http://freakshare.com/files/wxntmjq0/R23J8R9323DChamako.part23.rar.html

http://freakshare.com/files/zo2f6tcb/R23J8R9323DChamako.part24.rar.html

http://freakshare.com/files/n7oql733/R23J8R9323DChamako.part25.rar.html

http://freakshare.com/files/483rqr8p/R23J8R9323DChamako.part26.rar.html

UPLOADED

http://ul.to/za9akjls

http://ul.to/g592utuv

http://ul.to/ifbh57gv

http://ul.to/77od22cn

http://ul.to/ef1or8fc

http://ul.to/m6etexq1

http://ul.to/8z7r3mji

http://ul.to/gxzkbj0t

http://ul.to/qf4nsho9

http://ul.to/r8v28nqm

http://ul.to/3s47a6dv

http://ul.to/5s1cyb4k

http://ul.to/qkvrlazb

http://ul.to/r5f5ckbi

http://ul.to/xp6er0je

http://ul.to/zs5tftin

http://ul.to/6ct3d81g

http://ul.to/pmi7rr5v

http://ul.to/a84sm7m9

http://ul.to/3z9xaxqp

http://ul.to/orarf9bb

http://ul.to/pqisg1ay

http://ul.to/0rkzqtx6

http://ul.to/29znojlh

http://ul.to/4htcf682

http://ul.to/0mdq074a

http://ul.to/4olbmnon

http://ul.to/udqn05wl

PUTLOCKER
Lo sentimos, este contenido está visible solamente para usuarios registrados. Click aquí para Registrarse

MEGA
Lo sentimos, este contenido está visible solamente para usuarios registrados. Click aquí para Registrarse


La Contraseña para todos los archivos es “chamako” (sin comillas y todo minusculas)

Apoyame comprando tu cuenta premium de estos servidores

Compra tu cuenta premium cada mes >>> FreakShare

Compra tu cuenta premium cada mes  >>> Uploaded

7 comentarios

  1. german_101 says:

    Gracias brod, un abrazo y saludos.

  2. aninimo says:

    Gracias, pero el audio latino solo esta sincronizado hasta el minuto siete, de ahi en adelante esta todo desincronizado, es imposible ver y entender la pelicula con el audio latino que lleva, 1saludo.

  3. juan_angamarca says:

    gracias x el trabajo de subir y compartir

  4. yofozafafofo says:

    Amigo, que puedo hacer para registrarme y ver los enlaces de Mega? muchas gracias y saludos.

  5. juantheghost says:

    gracias por la peli

  6. pablohernandeza says:

    Links de Audio Latino 5.1 Solo para el 3D caidos

Escribir un comentario