Iron Man 3 (2013) [3D SBS][BDRip 1080p][Español Latino 5.1/Ingles DTS][Sub.Español 3D]

Por Chamako / hace 4 años / 4 Comentarios ».

En “Iron Man 3” de Marvel, el descarado pero brillante empresario Tony Stark/Iron Man se enfrentará a un enemigo cuyo poder no conoce límites. Cuando Stark comprende que su enemigo ha destruido su universo personal, se embarca en una angustiosa búsqueda para encontrar a los responsables. Este viaje pondrá a prueba su entereza una y otra vez. Acorralado, Stark tendrá que sobrevivir por sus propios medios, confiando en su ingenio y su instinto para proteger a las personas que quiere. Durante su lucha, Stark conocerá la respuesta a la pregunta que le atormenta en secreto: ¿El hábito hace al monje o es al contrario?


Título: Iron Man 3
Título original: Iron Man 3
País: USA
Estreno en USA: 03/05/2013
Estreno en España: 26/04/2013
Lanzamiento en DVD (alquiler): 28/08/2013
Estreno en DVD (venta): 28/08/2013
Estreno en Blu-ray: 28/08/2013
Productora: Paramount Pictures
Director: Shane Black
Guión: Drew Pearce, Shane Black
Reparto: Robert Downey Jr., Don Cheadle, Gwyneth Paltrow, Guy Pearce, Cobie Smulders, Ben Kingsley, Paul Bettany, Rebecca Hall, Jon Favreau, Stan Lee, William Sadler, Justin Wheelon, James Badge Dale, Stephanie Szostak, Yvonne Zima
Calificación: No recomendada para menores de 12 años






General
Unique ID : 180701685391848065329613980412392796572 (0x87F1E0F1CF91601ABC82A5A929DC719C)
Complete name : Iron Man 3 2013 3D SBS 1080p Latino.mkv
Format : Matroska
Format version : Version 2
File size : 13.2 GiB
Duration : 2h 10mn
Overall bit rate : 14.4 Mbps
Movie name : www.Chamako.Net – Iron Man 3 (2013) 3D SBS 1080P Latino 5.1
Encoded date : UTC 2013-08-26 01:40:31
Writing application : mkvmerge v3.4.0 (‘Rapunzel’) built on May 15 2010 09:38:20
Writing library : libebml v0.8.0 + libmatroska v0.9.0

Video
ID : 1
Format : AVC
Format/Info : Advanced Video Codec
Format profile : High@L4.1
Format settings, CABAC : Yes
Format settings, ReFrames : 3 frames
Format settings, GOP : M=4, N=24
Codec ID : V_MPEG4/ISO/AVC
Duration : 2h 10mn
Bit rate : 12.0 Mbps
Width : 1 920 pixels
Height : 800 pixels
Display aspect ratio : 2.40:1
Frame rate mode : Constant
Frame rate : 23.976 fps
Color space : YUV
Chroma subsampling : 4:2:0
Bit depth : 8 bits
Scan type : Progressive
Bits/(Pixel*Frame) : 0.326
Stream size : 10.9 GiB (83%)
Title : www.Chamako.Net – Iron Man 3
Writing library : x264 core
Default : No
Forced : No
Color primaries : BT.709
Transfer characteristics : BT.709
Matrix coefficients : BT.709

Audio #1
ID : 2
Format : AC-3
Format/Info : Audio Coding 3
Mode extension : CM (complete main)
Format settings, Endianness : Big
Codec ID : A_AC3
Duration : 2h 10mn
Bit rate mode : Constant
Bit rate : 640 Kbps
Channel(s) : 6 channels
Channel positions : Front: L C R, Side: L R, LFE
Sampling rate : 48.0 KHz
Bit depth : 16 bits
Compression mode : Lossy
Stream size : 598 MiB (4%)
Title : www.Chamako.Net – Latino 5.1
Language : Spanish
Default : Yes
Forced : No

Audio #2
ID : 3
Format : DTS
Format/Info : Digital Theater Systems
Mode : 16
Format settings, Endianness : Big
Codec ID : A_DTS
Duration : 2h 10mn
Bit rate mode : Constant
Bit rate : 1 509 Kbps
Channel(s) : 6 channels
Channel positions : Front: L C R, Side: L R, LFE
Sampling rate : 48.0 KHz
Bit depth : 24 bits
Compression mode : Lossy
Delay relative to video : 11ms
Stream size : 1.38 GiB (10%)
Title : www.Chamako.Net – English DTS
Language : English
Default : No
Forced : No

Text #1
ID : 4
Format : ASS
Codec ID : S_TEXT/ASS
Codec ID/Info : Advanced Sub Station Alpha
Compression mode : Lossless
Title : www.Chamako.Net – Spanish Forzados 3D
Language : Spanish
Default : No
Forced : Yes

Text #2
ID : 5
Format : ASS
Codec ID : S_TEXT/ASS
Codec ID/Info : Advanced Sub Station Alpha
Compression mode : Lossless
Title : www.Chamako.Net – Spanish Completos
Language : Spanish
Default : No
Forced : No

Menu
00:00:00.000 : en:(01)00:00:00:000
00:04:52.750 : en:(02)00:04:52:750
00:07:55.433 : en:(03)00:07:55:433
00:12:12.440 : en:(04)00:12:12:440
00:19:04.101 : en:(05)00:19:04:101
00:23:47.884 : en:(06)00:23:47:884
00:29:47.702 : en:(07)00:29:47:702
00:39:46.384 : en:(08)00:39:46:384
00:45:56.044 : en:(09)00:45:56:044
00:59:19.639 : en:(10)00:59:19:639
01:01:56.921 : en:(11)01:01:56:921
01:09:24.451 : en:(12)01:09:24:451
01:18:41.508 : en:(13)01:18:41:508
01:23:52.944 : en:(14)01:23:52:944
01:37:55.995 : en:(15)01:37:55:995
01:56:18.304 : en:(16)01:56:18:304
01:59:38.754 : en:(17)01:59:38:754
02:10:32.616 : en:(18)02:10:32:616

FREAKSHARE

http://freakshare.com/files/i5htc5mw/IRR12JR3DBSChamako.part01.rar.html
http://freakshare.com/files/pvpedcqj/IRR12JR3DBSChamako.part01.rev.html
http://freakshare.com/files/ky46upqk/IRR12JR3DBSChamako.part02.rar.html
http://freakshare.com/files/brx9s98k/IRR12JR3DBSChamako.part02.rev.html
http://freakshare.com/files/q16gtcsm/IRR12JR3DBSChamako.part03.rar.html
http://freakshare.com/files/2dn28h8a/IRR12JR3DBSChamako.part04.rar.html
http://freakshare.com/files/n2s4gr9l/IRR12JR3DBSChamako.part05.rar.html
http://freakshare.com/files/79v4r6oc/IRR12JR3DBSChamako.part06.rar.html
http://freakshare.com/files/whofi2e0/IRR12JR3DBSChamako.part07.rar.html
http://freakshare.com/files/tpmgykdu/IRR12JR3DBSChamako.part08.rar.html
http://freakshare.com/files/0gnbvuwf/IRR12JR3DBSChamako.part09.rar.html
http://freakshare.com/files/c8mfjkm5/IRR12JR3DBSChamako.part10.rar.html
http://freakshare.com/files/v031sune/IRR12JR3DBSChamako.part11.rar.html
http://freakshare.com/files/jz8koj6i/IRR12JR3DBSChamako.part12.rar.html
http://freakshare.com/files/jmrirocb/IRR12JR3DBSChamako.part13.rar.html
http://freakshare.com/files/d8wk5c3u/IRR12JR3DBSChamako.part14.rar.html
http://freakshare.com/files/zpdwfvt6/IRR12JR3DBSChamako.part15.rar.html
http://freakshare.com/files/xa6ifkbp/IRR12JR3DBSChamako.part16.rar.html
http://freakshare.com/files/j997j185/IRR12JR3DBSChamako.part17.rar.html
http://freakshare.com/files/xue8clhg/IRR12JR3DBSChamako.part18.rar.html
http://freakshare.com/files/yxonaa4b/IRR12JR3DBSChamako.part19.rar.html
http://freakshare.com/files/xteqswed/IRR12JR3DBSChamako.part20.rar.html
http://freakshare.com/files/c3rcyjnb/IRR12JR3DBSChamako.part21.rar.html
http://freakshare.com/files/pm215sx6/IRR12JR3DBSChamako.part22.rar.html
http://freakshare.com/files/nqqtk7vc/IRR12JR3DBSChamako.part23.rar.html

UPLOADED

http://ul.to/wboe9d82
http://ul.to/8zl3bwyz
http://ul.to/urls3ari
http://ul.to/rnekliwn
http://ul.to/l9jvvdkx
http://ul.to/pse58t5p
http://ul.to/mn8vy6xx
http://ul.to/aew7m10a
http://ul.to/btci48yx
http://ul.to/r3mvjbdj
http://ul.to/9kdsesy7
http://ul.to/g50h1dkh
http://ul.to/kblqsxqo
http://ul.to/fd9vfew2
http://ul.to/l73f9xp5
http://ul.to/i0ghvo2d
http://ul.to/o5e5mxnm
http://ul.to/t4p91rpj
http://ul.to/zxmyu0p0
http://ul.to/1w3xu15v
http://ul.to/yed3abxm
http://ul.to/c422vriy
http://ul.to/cp079wrk
http://ul.to/1x2vli3y
http://ul.to/cdtgpjrd

PUTLOCKER
Lo sentimos, este contenido está visible solamente para usuarios registrados. Click aquí para Registrarse

MEGA
Lo sentimos, este contenido está visible solamente para usuarios registrados. Click aquí para Registrarse


La Contraseña para todos los archivos es “chamako” (sin comillas y todo minusculas)

Apoyame comprando tu cuenta premium de estos servidores

Compra tu cuenta premium cada mes >>> FreakShare

Compra tu cuenta premium cada mes  >>> Uploaded

4 Comentarios

Deja un comentario

Compra premium Uploaded

uploaded

Facebook

Peliculas en 3D

Monsters Univrsity 3D

Pacific Rim 3D

Croods 3D

Star Trek 3D

Guerra Mundial Z 3D

Iron MAN 3 3D

Rip Departamento 3D

Los Pitufos 2 3 3D

Man of Steel 3 3D

Mi Villano favorito 2 3D

Aviones 3D

Turbo 2013 3D

Turbo 2013 3D

Percy Jackson 2013 3D

Gatsby 3D

Epic 3D

Gi Joe 2 3D

Hansel y Gretel 3D

Hansel y Gretel 3D

Oz 3D

The Hobbit 3D

Ilusionautas 3D

Life of Pi 3D

El Origen de los Guardianes 3D

Ralph el Demoledor 3D

Silent Hill Revelation 3D

Monster 3D

Monster 3D

Monster 3D

DREDD 3D 1080P

Brave 3D 1080P

Series en DVD

Spartacus Vengeance Season  2 DVD The Big Bang Theory Season 5 DVD Homeland Season 1 DVD Once Upon a Time Season 1 DVD The Walking Dead Season 2 DVD