La Bella y la Bestia (1991) [3D SBS][BDRip 1080p][Español Latino 5.1/Ingles]

Por Chamako / hace 5 años / 2 Comentarios ».

Años atrás había un joven príncipe. El joven era egoísta y su corazón era de piedra. Una noche fría una anciana le pidió resguardo en su castillo a cambio de una rosa pero el príncipe se lo negó con desprecio. En aquel momento la anciana se reveló como una hermosa hechicera, que sintiéndose ofendida por su despreciable actitud hechizó al príncipe, a quienes vivian con él y al castillo. El hechizo consistía en que el príncipe se convirtió en una temible bestia y los sirvientes tomaron la apariencia de objetos domésticos, como candelabros, armarios, pocillos etc. Solo si el príncipe aprendía a amar y a su vez se ganaba el amor de alguien antes de que una rosa mágica perdiera su último pétalo todo volvería a lo normalidad. En caso contrario la bestia viviría eternamente, infeliz y abandonada. Además de la rosa mágica, la hechicera le dejó un espejo mágico a través del cual podía ver lo que él quisiera.

Título: La Bella y la Bestia
Título Original: Beauty and the Beast
Dirección: Gary Trousdale, Kirk Wise
Producción: Howard Ashman, Don Hahn, Sarah McArthur, Guión Linda Woolverton
Música: Alan Menken
Reparto: Robby Benson (Bestia), Paige O’Hara (Bella), Rex Everhart (Maurice), Angela Lansbury (Sra. Potts), Jerry Orbach (Lumiere), Davd Ogden Stiers (Din Don), Bradley Pierce (Chip), Richard White (Gaston), Jesse Corti (Lefou), Datos y cifras
País: Estados Unidos
Año: 1991
Género: Animación, Musical, Romance
Duración: 85 minutos
Productora: Disney


c2013-01-29-09h08m47s98_zps18c4c028.png
c2013-01-29-09h09m06s44_zps362dd3a4.png
c2013-01-29-09h09m11s80_zps7210823a.png
c2013-01-29-09h09m15s95_zps5bd3b820.png

General
Unique ID : 193051360896720003236810189335222016463 (0x913C56F4FA687760961BA6D122C7D9CF)
Complete name : La Bella y La Bestia 3d SBS\La Bella y la Bestia 3D SBS 1080P Latino By Chamako.mkv
Format : Matroska
Format version : Version 2
File size : 7.46 GiB
Duration : 1h 24mn
Overall bit rate : 12.6 Mbps
Movie name : wWw.ReleaseTV.Net – La Bella y la Bestia 3D SBS 1080P Latino By Chamako
Encoded date : UTC 2013-01-29 14:36:12
Writing application : mkvmerge v3.4.0 (‘Rapunzel’) built on May 15 2010 09:38:20
Writing library : libebml v0.8.0 + libmatroska v0.9.0

Video
ID : 1
Format : AVC
Format/Info : Advanced Video Codec
Format profile : High@L4.1
Format settings, CABAC : Yes
Format settings, ReFrames : 2 frames
Codec ID : V_MPEG4/ISO/AVC
Duration : 1h 24mn
Bit rate : 9 738 Kbps
Width : 1 920 pixels
Height : 1 070 pixels
Display aspect ratio : 16:9
Frame rate mode : Constant
Frame rate : 23.976 fps
Color space : YUV
Chroma subsampling : 4:2:0
Bit depth : 8 bits
Scan type : Progressive
Bits/(Pixel*Frame) : 0.198
Stream size : 5.78 GiB (77%)
Title : wWw.ReleaseTV.Net – La Bella y la Bestia 3D
Writing library : x264 core
Language : English
Default : No
Forced : No
Color primaries : BT.709
Transfer characteristics : BT.709
Matrix coefficients : BT.709

Audio #1
ID : 2
Format : AC-3
Format/Info : Audio Coding 3
Mode extension : CM (complete main)
Format settings, Endianness : Big
Codec ID : A_AC3
Duration : 1h 24mn
Bit rate mode : Constant
Bit rate : 448 Kbps
Channel(s) : 6 channels
Channel positions : Front: L C R, Side: L R, LFE
Sampling rate : 48.0 KHz
Bit depth : 16 bits
Compression mode : Lossy
Stream size : 272 MiB (4%)
Title : Latino 5.1
Language : Spanish
Default : Yes
Forced : Yes

Audio #2
ID : 3
Format : AC-3
Format/Info : Audio Coding 3
Mode extension : CM (complete main)
Format settings, Endianness : Big
Codec ID : A_AC3
Duration : 1h 24mn
Bit rate mode : Constant
Bit rate : 640 Kbps
Channel(s) : 6 channels
Channel positions : Front: L C R, Side: L R, LFE
Sampling rate : 48.0 KHz
Bit depth : 16 bits
Compression mode : Lossy
Stream size : 389 MiB (5%)
Title : Chamako – English
Language : English
Default : No
Forced : No

Audio #3
ID : 4
Format : DTS
Format/Info : Digital Theater Systems
Mode : 16
Format settings, Endianness : Big
Codec ID : A_DTS
Duration : 1h 24mn
Bit rate mode : Constant
Bit rate : 1 509 Kbps
Channel(s) : 6 channels
Channel positions : Front: L C R, Side: L R, LFE
Sampling rate : 48.0 KHz
Bit depth : 24 bits
Compression mode : Lossy
Delay relative to video : 11ms
Stream size : 916 MiB (12%)
Title : Chamako – English DTS
Language : English
Default : No
Forced : No

Text #1
ID : 5
Format : UTF-8
Codec ID : S_TEXT/UTF8
Codec ID/Info : UTF-8 Plain Text
Title : Spanish Completos
Default : No
Forced : No

Text #2
ID : 6
Format : UTF-8
Codec ID : S_TEXT/UTF8
Codec ID/Info : UTF-8 Plain Text
Title : Spanish Forzados
Language : Spanish
Default : Yes
Forced : Yes

FREAKSHARE

http://freakshare.com/files/re2b8cfe/LByLB.3D.Chamako.part01.rar.html
http://freakshare.com/files/8twbzdng/LByLB.3D.Chamako.part01.rev.html
http://freakshare.com/files/sksvplnz/LByLB.3D.Chamako.part02.rar.html
http://freakshare.com/files/rzncowf3/LByLB.3D.Chamako.part02.rev.html
http://freakshare.com/files/w0l8b4mx/LByLB.3D.Chamako.part03.rar.html
http://freakshare.com/files/jq64semz/LByLB.3D.Chamako.part04.rar.html
http://freakshare.com/files/uoq5xe6e/LByLB.3D.Chamako.part05.rar.html
http://freakshare.com/files/q4azdxpw/LByLB.3D.Chamako.part06.rar.html
http://freakshare.com/files/8re0li8w/LByLB.3D.Chamako.part07.rar.html
http://freakshare.com/files/hwwi84ne/LByLB.3D.Chamako.part08.rar.html
http://freakshare.com/files/98i9iplw/LByLB.3D.Chamako.part09.rar.html
http://freakshare.com/files/zm0zxmz8/LByLB.3D.Chamako.part10.rar.html
http://freakshare.com/files/0kxu7j6c/LByLB.3D.Chamako.part11.rar.html
http://freakshare.com/files/br9jg5my/LByLB.3D.Chamako.part12.rar.html
http://freakshare.com/files/xxi9lamb/LByLB.3D.Chamako.part13.rar.html
http://freakshare.com/files/vh9sovzc/LByLB.3D.Chamako.part14.rar.html
http://freakshare.com/files/np2b5ivh/LByLB.3D.Chamako.part15.rar.html
http://freakshare.com/files/ybknkudj/LByLB.3D.Chamako.part16.rar.html

UPLOADED

http://ul.to/6df919g2
http://ul.to/6fpi1dvy
http://ul.to/ym4js11g
http://ul.to/32rdbu4e
http://ul.to/s0hfkuke
http://ul.to/wtkktkk1
http://ul.to/xrmxos9a
http://ul.to/tf97l6m2
http://ul.to/74bz5w66
http://ul.to/o436dosh
http://ul.to/u63uipq5
http://ul.to/f8fipiwu
http://ul.to/2qbcafbh
http://ul.to/wxh2qqms
http://ul.to/b2o7gi8m
http://ul.to/vgetctuh
http://ul.to/qzn22dia
http://ul.to/rneo5wx2

PUTLOCKER
Lo sentimos, este contenido está visible solamente para usuarios registrados. Click aquí para Registrarse


La Contraseña para todos los archivos es “chamako” (sin comillas y todo minusculas)

Apoyame comprando tu cuenta premium de estos servidores

Compra tu cuenta premium cada mes >>> FreakShare

Compra tu cuenta premium cada mes  >>>      BitShare 

Compra tu cuenta premium cada mes  >>>      Uploaded

2 Comentarios

Deja un comentario

Compra premium Uploaded

uploaded

Facebook

Peliculas en 3D

Monsters Univrsity 3D

Pacific Rim 3D

Croods 3D

Star Trek 3D

Guerra Mundial Z 3D

Iron MAN 3 3D

Rip Departamento 3D

Los Pitufos 2 3 3D

Man of Steel 3 3D

Mi Villano favorito 2 3D

Aviones 3D

Turbo 2013 3D

Turbo 2013 3D

Percy Jackson 2013 3D

Gatsby 3D

Epic 3D

Gi Joe 2 3D

Hansel y Gretel 3D

Hansel y Gretel 3D

Oz 3D

The Hobbit 3D

Ilusionautas 3D

Life of Pi 3D

El Origen de los Guardianes 3D

Ralph el Demoledor 3D

Silent Hill Revelation 3D

Monster 3D

Monster 3D

Monster 3D

DREDD 3D 1080P

Brave 3D 1080P

Series en DVD

Spartacus Vengeance Season  2 DVD The Big Bang Theory Season 5 DVD Homeland Season 1 DVD Once Upon a Time Season 1 DVD The Walking Dead Season 2 DVD