Los Ilusionautas (2012) [3D SBS][BDRip 1080p][Español Latino 5.1/Ingles DTS]

Por Chamako / hace 4 años / 3 Comentarios ».

Los Ilusionautas

Cuenta las peripecias de 4 niños y una mascota que son conocidos como LOS ILUSIONAUTAS.


Titulo: Los ilusionautas
Año 2012
País Perú
Director Eduardo Schuldt – Guión – Kathy Borland, Abraham Vurnbrand
Fotografía Animation
Reparto Animation
Productora Aronnax Animation Studios
Género Animación. Fantástico. Aventuras | 3-D
Web Oficial http://www.facebook.com/Los.Ilusionautas


c2013-07-11-17h08m37s200.png
c2013-07-11-17h08m45s255.png
c2013-07-11-17h08m33s142.png
c2013-07-11-17h08m20s18.png

General
Unique ID : 245112528359088446192923807115899246453 (0xB866F4B009AC25F89453D4117DE71775)
Complete name : Los Ilusionautas 2012 3D SBS 1080P Latino.mkv
Format : Matroska
Format version : Version 2
File size : 8.43 GiB
Duration : 1h 21mn
Overall bit rate : 14.8 Mbps
Movie name : www.Chamako.Net – Los Ilusionautas 2013 3D SBS 1080P Latino
Encoded date : UTC 2013-07-11 20:57:56
Writing application : mkvmerge v3.4.0 (‘Rapunzel’) built on May 15 2010 09:38:20
Writing library : libebml v0.8.0 + libmatroska v0.9.0

Video
ID : 1
Format : AVC
Format/Info : Advanced Video Codec
Format profile : High@L4.1
Format settings, CABAC : Yes
Format settings, ReFrames : 2 frames
Codec ID : V_MPEG4/ISO/AVC
Duration : 1h 21mn
Bit rate : 12.6 Mbps
Width : 1 920 pixels
Height : 1 080 pixels
Display aspect ratio : 16:9
Frame rate mode : Constant
Frame rate : 23.976 fps
Color space : YUV
Chroma subsampling : 4:2:0
Bit depth : 8 bits
Scan type : Progressive
Bits/(Pixel*Frame) : 0.253
Stream size : 7.15 GiB (85%)
Title : www.Chamako.Net – Los Ilusionautas 2013 3D
Writing library : x264 core
Language : English
Default : No
Forced : No
Color primaries : BT.709
Transfer characteristics : BT.709
Matrix coefficients : BT.709

Audio #1
ID : 2
Format : AC-3
Format/Info : Audio Coding 3
Mode extension : CM (complete main)
Format settings, Endianness : Big
Codec ID : A_AC3
Duration : 1h 21mn
Bit rate mode : Constant
Bit rate : 448 Kbps
Channel(s) : 6 channels
Channel positions : Front: L C R, Side: L R, LFE
Sampling rate : 48.0 KHz
Bit depth : 16 bits
Compression mode : Lossy
Stream size : 261 MiB (3%)
Title : www.Chamako.Net – Español Latino AC3 5.1
Language : Spanish
Default : Yes
Forced : Yes

Audio #2
ID : 3
Format : DTS
Format/Info : Digital Theater Systems
Mode : 16
Format settings, Endianness : Big
Codec ID : A_DTS
Duration : 1h 21mn
Bit rate mode : Constant
Bit rate : 1 510 Kbps
Channel(s) : 6 channels
Channel positions : Front: L C R, Side: L R, LFE
Sampling rate : 48.0 KHz
Bit depth : 24 bits
Compression mode : Lossy
Delay relative to video : 11ms
Stream size : 880 MiB (10%)
Title : www.Chamako.Net – Ingles DTS
Language : English
Default : No
Forced : No

FREAKSHARE

http://freakshare.com/files/ofpji8sm/LI123DSBChamako.part01.rar.html
http://freakshare.com/files/0qbeaevr/LI123DSBChamako.part01.rev.html
http://freakshare.com/files/86t5296p/LI123DSBChamako.part02.rar.html
http://freakshare.com/files/x2zc8yfr/LI123DSBChamako.part02.rev.html
http://freakshare.com/files/03ipw76d/LI123DSBChamako.part03.rar.html
http://freakshare.com/files/kyfiidl7/LI123DSBChamako.part04.rar.html
http://freakshare.com/files/zvymabx2/LI123DSBChamako.part05.rar.html
http://freakshare.com/files/pearbebs/LI123DSBChamako.part06.rar.html
http://freakshare.com/files/udcibex9/LI123DSBChamako.part07.rar.html
http://freakshare.com/files/y9kkuaq5/LI123DSBChamako.part08.rar.html
http://freakshare.com/files/61ll1v18/LI123DSBChamako.part09.rar.html
http://freakshare.com/files/whxr854q/LI123DSBChamako.part10.rar.html
http://freakshare.com/files/cn5fajul/LI123DSBChamako.part11.rar.html
http://freakshare.com/files/jn6x48np/LI123DSBChamako.part12.rar.html
http://freakshare.com/files/6yavhirx/LI123DSBChamako.part13.rar.html
http://freakshare.com/files/5t53v4tn/LI123DSBChamako.part14.rar.html
http://freakshare.com/files/gt36dqik/LI123DSBChamako.part15.rar.html
http://freakshare.com/files/eb9mnbhh/LI123DSBChamako.part16.rar.html
http://freakshare.com/files/tlgfqjw2/LI123DSBChamako.part17.rar.html
http://freakshare.com/files/x2ah8j9o/LI123DSBChamako.part18.rar.html

UPLOADED

http://ul.to/5lb8nqiv
http://ul.to/xzbxu5mp
http://ul.to/m9te89dx
http://ul.to/4i4fdzx9
http://ul.to/grsatxzr
http://ul.to/eif5me4p
http://ul.to/v3librj0
http://ul.to/dr2cb5ie
http://ul.to/dlurz39h
http://ul.to/fu62itog
http://ul.to/r6jkfgh5
http://ul.to/t1k5bs7u
http://ul.to/6coehp46
http://ul.to/3qxr3kmg
http://ul.to/6wdre2mw
http://ul.to/y78bfvz7
http://ul.to/nwh0ailr
http://ul.to/sugl1bff
http://ul.to/jpcyee8e
http://ul.to/uo9vu1vf

PUTLOCKER
Lo sentimos, este contenido está visible solamente para usuarios registrados. Click aquí para Registrarse

MEGA
Lo sentimos, este contenido está visible solamente para usuarios registrados. Click aquí para Registrarse


La Contraseña para todos los archivos es “chamako” (sin comillas y todo minusculas)

Apoyame comprando tu cuenta premium de estos servidores

Compra tu cuenta premium cada mes >>> FreakShare

Compra tu cuenta premium cada mes  >>> Uploaded

3 Comentarios

Deja un comentario

Compra premium Uploaded

uploaded

Facebook

Peliculas en 3D

Monsters Univrsity 3D

Pacific Rim 3D

Croods 3D

Star Trek 3D

Guerra Mundial Z 3D

Iron MAN 3 3D

Rip Departamento 3D

Los Pitufos 2 3 3D

Man of Steel 3 3D

Mi Villano favorito 2 3D

Aviones 3D

Turbo 2013 3D

Turbo 2013 3D

Percy Jackson 2013 3D

Gatsby 3D

Epic 3D

Gi Joe 2 3D

Hansel y Gretel 3D

Hansel y Gretel 3D

Oz 3D

The Hobbit 3D

Ilusionautas 3D

Life of Pi 3D

El Origen de los Guardianes 3D

Ralph el Demoledor 3D

Silent Hill Revelation 3D

Monster 3D

Monster 3D

Monster 3D

DREDD 3D 1080P

Brave 3D 1080P

Series en DVD

Spartacus Vengeance Season  2 DVD The Big Bang Theory Season 5 DVD Homeland Season 1 DVD Once Upon a Time Season 1 DVD The Walking Dead Season 2 DVD