Los Pitufos 2 (2013) [3D SBS] [BDRip 080p] [Español Latino 5.1/Ingles DTS] [Sub.Español Completos 3D]

Por Chamako / hace 3 años / 2 Comentarios ».

En esta secuela el malvado brujo Gargamel crea una pareja de criaturas revoltosas, una copia de los pitufos, llamados los Malotes y que espera le permitan aprovecharse de la poderosa y mágica esencia de los Pitufos. Pero cuando descubre que solo un autentico Pitufo le puede dar lo que quiere –y que solamente un secreto que conoce Pitufina puede transformar a los Malotes en verdaderos pitufos- Gargamel secuestra a Pitufina y la lleva a París, lugar donde se ha ganado la adoración de millones de seguidores que lo consideran como el hechicero más grande del mundo. Por lo que está en manos de Papá Pitufo, Torpe, Gruñón y Vanidoso regresar a nuestro mundo, y reunirse con sus amigos humanos Patrick y Grace Winslow, ¡y rescatarla! ¿Puede ser que Pitufina, que siempre se ha sentido diferente de los demás pitufos, halle una conexión especial con los Malotes, Vexy y Hackus? ¿Y podrán Los Pitufos convencerla de que el amor que sienten por ella es auténtico?


Título: Los Pitufos 2
Título original: The Smurfs 2
País: USA
Estreno en USA: 31/07/2013
Estreno en España: 02/08/2013
Productora: Sony Pictures Animation
Director: Raja Gosnell
Guión: J. David Stem, David N. Weiss, Karey Kirkpatrick, Jay Sherick, David Ronn
Reparto: Neil Patrick Harris, Jayma Mays, Sofia Vergara, Hank Azaria, Brendan Gleeson, Katy Perry, Jonathan Winters, Alan Cumming, Fred Armisen, George Lopez, Anton Yelchin, John Oliver, Christina Ricci, JB Smoove
Calificación: Apta para todos los públicos


c2013-11-21-12h59m05s91.png
c2013-11-21-12h59m24s35.png
c2013-11-21-13h00m25s125.png
c2013-11-21-12h59m48s26.png

General
Unique ID : 206416722121050681026591192424800153368 (0x9B4A6A243E1ECCE0B54BB8F89BE56F18)
Complete name : Pitufos 3D.mkv
Format : Matroska
Format version : Version 2
File size : 9.98 GiB
Duration : 1h 44mn
Overall bit rate : 13.6 Mbps
Movie name : www.Chamako.Net – Los Pitufos 2 (2013) 3D SBS 1080P Latino
Encoded date : UTC 2013-11-20 05:42:40
Writing application : mkvmerge v3.4.0 (‘Rapunzel’) built on May 15 2010 09:38:20
Writing library : libebml v0.8.0 + libmatroska v0.9.0

Video
ID : 1
Format : AVC
Format/Info : Advanced Video Codec
Format profile : High@L4.1
Format settings, CABAC : Yes
Format settings, ReFrames : 2 frames
Codec ID : V_MPEG4/ISO/AVC
Duration : 1h 44mn
Bit rate : 11.2 Mbps
Width : 1 920 pixels
Height : 1 080 pixels
Display aspect ratio : 16:9
Frame rate mode : Constant
Frame rate : 23.976 fps
Color space : YUV
Chroma subsampling : 4:2:0
Bit depth : 8 bits
Scan type : Progressive
Bits/(Pixel*Frame) : 0.225
Stream size : 8.21 GiB (82%)
Title : www.Chamako.Net – Los Pitufos 2 (2013)
Writing library : x264 core
Language : English
Default : No
Forced : No
Color primaries : BT.709
Transfer characteristics : BT.709
Matrix coefficients : BT.709

Audio #1
ID : 2
Format : AC-3
Format/Info : Audio Coding 3
Mode extension : CM (complete main)
Format settings, Endianness : Big
Codec ID : A_AC3
Duration : 1h 44mn
Bit rate mode : Constant
Bit rate : 640 Kbps
Channel(s) : 6 channels
Channel positions : Front: L C R, Side: L R, LFE
Sampling rate : 48.0 KHz
Bit depth : 16 bits
Compression mode : Lossy
Stream size : 480 MiB (5%)
Title : www.Chamako.Net – Latino 5.1
Language : Spanish
Default : Yes
Forced : Yes

Audio #2
ID : 3
Format : DTS
Format/Info : Digital Theater Systems
Mode : 16
Format settings, Endianness : Big
Codec ID : A_DTS
Duration : 1h 44mn
Bit rate mode : Constant
Bit rate : 1 509 Kbps
Channel(s) : 6 channels
Channel positions : Front: L C R, Side: L R, LFE
Sampling rate : 48.0 KHz
Bit depth : 24 bits
Compression mode : Lossy
Delay relative to video : 11ms
Stream size : 1.11 GiB (11%)
Title : www.Chamako.Net – English DTS
Language : English
Default : No
Forced : No

Text
ID : 4
Format : ASS
Codec ID : S_TEXT/ASS
Codec ID/Info : Advanced Sub Station Alpha
Compression mode : Lossless
Title : www.Chamako.Net – Spanish
Language : Spanish
Default : No
Forced : No

Menu
00:00:00.000 : en:00:00:00.000
00:05:00.133 : en:00:05:00.133
00:11:12.755 : en:00:11:12.755
00:18:14.093 : en:00:18:14.093
00:23:18.522 : en:00:23:18.522
00:27:54.590 : en:00:27:54.590
00:34:25.480 : en:00:34:25.480
00:41:09.342 : en:00:41:09.342
00:46:10.434 : en:00:46:10.434
00:50:59.098 : en:00:50:59.098
00:56:47.863 : en:00:56:47.863
01:02:33.875 : en:01:02:33.875
01:07:06.773 : en:01:07:06.773
01:14:10.196 : en:01:14:10.196
01:21:05.819 : en:01:21:05.819
01:28:24.591 : en:01:28:24.591

FREAKSHARE

http://freakshare.com/files/coo2enth/PF3DChamako.part01.rar.html
http://freakshare.com/files/rm6pxmas/PF3DChamako.part01.rev.html
http://freakshare.com/files/7ry4owu7/PF3DChamako.part02.rar.html
http://freakshare.com/files/dljedki2/PF3DChamako.part02.rev.html
http://freakshare.com/files/dy960vix/PF3DChamako.part03.rar.html
http://freakshare.com/files/h4mifv0n/PF3DChamako.part04.rar.html
http://freakshare.com/files/v869f82x/PF3DChamako.part05.rar.html
http://freakshare.com/files/tyl6gmho/PF3DChamako.part06.rar.html
http://freakshare.com/files/p22nzcf0/PF3DChamako.part07.rar.html
http://freakshare.com/files/wy4f7936/PF3DChamako.part08.rar.html
http://freakshare.com/files/tig9jrhs/PF3DChamako.part09.rar.html
http://freakshare.com/files/fzgl5x6v/PF3DChamako.part10.rar.html
http://freakshare.com/files/u0cyjgvh/PF3DChamako.part11.rar.html
http://freakshare.com/files/m7n3nvlz/PF3DChamako.part12.rar.html
http://freakshare.com/files/3ythym6f/PF3DChamako.part13.rar.html
http://freakshare.com/files/a3fbm0mh/PF3DChamako.part14.rar.html
http://freakshare.com/files/011hfcd2/PF3DChamako.part15.rar.html
http://freakshare.com/files/l9p55dij/PF3DChamako.part16.rar.html
http://freakshare.com/files/fi1nxmcc/PF3DChamako.part17.rar.html
http://freakshare.com/files/x91rnwll/PF3DChamako.part18.rar.html
http://freakshare.com/files/i9mrqwqf/PF3DChamako.part19.rar.html
http://freakshare.com/files/bx2xwa9m/PF3DChamako.part20.rar.html
http://freakshare.com/files/ife23czu/PF3DChamako.part21.rar.html

UPLOADED

http://ul.to/exye9kwr
http://ul.to/qpn40od4
http://ul.to/x81ckgo2
http://ul.to/2auvhoaz
http://ul.to/oq57watb
http://ul.to/w9o78amm
http://ul.to/wzh5ax94
http://ul.to/6bdjknf2
http://ul.to/yzbjt2ql
http://ul.to/bom75itr
http://ul.to/jwm4zbpl
http://ul.to/3lw07in9
http://ul.to/lc31mcqb
http://ul.to/h8doyn4f
http://ul.to/xewv09gu
http://ul.to/j4j53epb
http://ul.to/ea4lswrn
http://ul.to/hd2bbnwm
http://ul.to/voswyuit
http://ul.to/lqp35r1c
http://ul.to/4mhgz9xl
http://ul.to/sb6e6e09
http://ul.to/d0w2m2a1

PUTLOCKER
Lo sentimos, este contenido está visible solamente para usuarios registrados. Click aquí para Registrarse

MEGA
Lo sentimos, este contenido está visible solamente para usuarios registrados. Click aquí para Registrarse


La Contraseña para todos los archivos es “chamako” (sin comillas y todo minusculas)

Apoyame comprando tu cuenta premium de estos servidores

Compra tu cuenta premium cada mes >>> FreakShare

Compra tu cuenta premium cada mes  >>> Uploaded

2 Comentarios

Deja un comentario

Compra premium Uploaded

uploaded

Facebook

Peliculas en 3D

Monsters Univrsity 3D

Pacific Rim 3D

Croods 3D

Star Trek 3D

Guerra Mundial Z 3D

Iron MAN 3 3D

Rip Departamento 3D

Los Pitufos 2 3 3D

Man of Steel 3 3D

Mi Villano favorito 2 3D

Aviones 3D

Turbo 2013 3D

Turbo 2013 3D

Percy Jackson 2013 3D

Gatsby 3D

Epic 3D

Gi Joe 2 3D

Hansel y Gretel 3D

Hansel y Gretel 3D

Oz 3D

The Hobbit 3D

Ilusionautas 3D

Life of Pi 3D

El Origen de los Guardianes 3D

Ralph el Demoledor 3D

Silent Hill Revelation 3D

Monster 3D

Monster 3D

Monster 3D

DREDD 3D 1080P

Brave 3D 1080P

Series en DVD

Spartacus Vengeance Season  2 DVD The Big Bang Theory Season 5 DVD Homeland Season 1 DVD Once Upon a Time Season 1 DVD The Walking Dead Season 2 DVD