Man of Steel (2013) [3D SBS][BDRip 1080p][Español Latino 5.1/Ingles DTS][Sub.Español Completos 3D]

Por Chamako / hace 3 años / 13 Comentarios ».

man of steel

En el panteón de los superhéroes, Superman es el personaje más conocido y respetado de todos los tiempos. Clark Kent/Kal-El (Henry Cavill) es un joven periodista veinteañero que se siente perturbado por unos poderes que van más allá de la imaginación. Transportado a la Tierra hace años desde Krypton, un avanzado planeta alienígena, Clark se hace una última pregunta: ¿Por qué estoy aquí?. Criado con los valores de sus padres adoptivos Martha (Diane Lane) y Jonathan (Kevin Costner), Clark descubre que tiene grandes poderes por lo que tendrá que tomar difíciles decisiones. Pero en un momento en el que el mundo necesita más estabilidad, que nunca, reciben un ataque. ¿Será su capacidad usada para mantener la paz, o en última instancia para dividir y conquistar?. Clark debe convertirse en el héroe conocido como Superman, no sólo para convertirse en la última esperanza del mundo, sino para proteger a las personas que ama.


Título: El hombre de acero
Título original: Man of Steel
País: USA
Estreno en USA: 14/06/2013
Estreno en España: 21/06/2013
Productora: Warner Bros. Pictures
Director: Zack Snyder
Guión: David Goyer, Jonathan Nolan, Christopher Nolan
Reparto: Henry Cavill, Amy Adams, Russell Crowe, Michael Shannon, Kevin Costner, Laurence Fishburne, Diane Lane, Ayelet Zurer, Christopher Meloni, Richard Schiff, Antje Traue, Jadin Gould, Tahmoh Penikett, Michael Kelly, Dylan Sprayberry, Harry Lennix
Calificación: No recomendada para menores de 12 años


c2013-10-29-16h54m55s39.png
c2013-10-29-16h57m33s70.png
c2013-10-29-16h56m40s43.png
c2013-10-29-16h59m37s254.png

General
Unique ID : 185370762393803149301974363362459867907 (0x8B751C36C697D5F48F07F4DDE4475B03)
Complete name : Man of Steel 3D DSBS.mkv
Format : Matroska
Format version : Version 2
File size : 15.7 GiB
Duration : 2h 23mn
Overall bit rate : 15.7 Mbps
Movie name : www.Chamako.Net – Man of Steel (2013) 3D SBS 1080P Latino 5.1
Encoded date : UTC 2013-10-29 22:43:54
Writing application : mkvmerge v3.4.0 (‘Rapunzel’) built on May 15 2010 09:38:20
Writing library : libebml v0.8.0 + libmatroska v0.9.0

Video
ID : 1
Format : AVC
Format/Info : Advanced Video Codec
Format profile : High@L4.1
MultiView_Count : 2
MultiView_Layout : Right Eye
Format settings, CABAC : Yes
Format settings, ReFrames : 4 frames
Codec ID : V_MPEG4/ISO/AVC
Duration : 2h 23mn
Bit rate : 13.5 Mbps
Width : 1 920 pixels
Height : 1 080 pixels
Display aspect ratio : 16:9
Frame rate mode : Constant
Frame rate : 23.976 fps
Color space : YUV
Chroma subsampling : 4:2:0
Bit depth : 8 bits
Scan type : Progressive
Bits/(Pixel*Frame) : 0.272
Stream size : 13.5 GiB (86%)
Title : www.Chamako.Net – Man of Steel (2013)
Language : English
Default : No
Forced : No

Audio #1
ID : 2
Format : AC-3
Format/Info : Audio Coding 3
Mode extension : CM (complete main)
Format settings, Endianness : Big
Codec ID : A_AC3
Duration : 2h 23mn
Bit rate mode : Constant
Bit rate : 384 Kbps
Channel(s) : 6 channels
Channel positions : Front: L C R, Side: L R, LFE
Sampling rate : 44.1 KHz
Bit depth : 16 bits
Compression mode : Lossy
Stream size : 393 MiB (2%)
Title : www.Chamako.Net – Latino 5.1
Language : Spanish
Default : Yes
Forced : Yes

Audio #2
ID : 3
Format : DTS
Format/Info : Digital Theater Systems
Mode : 16
Format settings, Endianness : Big
Codec ID : A_DTS
Duration : 2h 23mn
Bit rate mode : Constant
Bit rate : 1 509 Kbps
Channel(s) : 6 channels
Channel positions : Front: L C R, Side: L R, LFE
Sampling rate : 48.0 KHz
Bit depth : 24 bits
Compression mode : Lossy
Delay relative to video : 11ms
Stream size : 1.51 GiB (10%)
Title : www.Chamako.Net – English DTS
Language : English
Default : No
Forced : No

Text
ID : 4
Format : ASS
Codec ID : S_TEXT/ASS
Codec ID/Info : Advanced Sub Station Alpha
Compression mode : Lossless
Title : www.Chamako.Net – Spanish 3D
Language : Spanish
Default : No
Forced : No

Menu
00:00:00.000 : en:00:00:00.000
00:11:16.968 : en:00:11:16.968
00:20:01.450 : en:00:20:01.450
00:30:09.474 : en:00:30:09.474
00:39:21.609 : en:00:39:21.609
00:48:57.643 : en:00:48:57.643
00:59:03.415 : en:00:59:03.415
01:08:57.884 : en:01:08:57.884
01:17:35.109 : en:01:17:35.109
01:28:36.186 : en:01:28:36.186
01:40:47.792 : en:01:40:47.792
01:50:55.858 : en:01:50:55.858
02:00:53.580 : en:02:00:53.580
02:10:13.556 : en:02:10:13.556
02:12:49.920 : en:02:12:49.920

FREAKSHARE

http://freakshare.com/files/8s4l6px7/MoS3dsbchamako.part01.rar.html
http://freakshare.com/files/5di2dwgj/MoS3dsbchamako.part01.rev.html
http://freakshare.com/files/crzzlyyr/MoS3dsbchamako.part02.rar.html
http://freakshare.com/files/ikiq554l/MoS3dsbchamako.part02.rev.html
http://freakshare.com/files/p8j2vi3i/MoS3dsbchamako.part03.rar.html
http://freakshare.com/files/wwvbh5e4/MoS3dsbchamako.part04.rar.html
http://freakshare.com/files/anqdms2a/MoS3dsbchamako.part05.rar.html
http://freakshare.com/files/w6bnsq17/MoS3dsbchamako.part06.rar.html
http://freakshare.com/files/2ea9p8yc/MoS3dsbchamako.part07.rar.html
http://freakshare.com/files/mu1sarc1/MoS3dsbchamako.part08.rar.html
http://freakshare.com/files/cs3pohv2/MoS3dsbchamako.part09.rar.html
http://freakshare.com/files/08dhksfv/MoS3dsbchamako.part11.rar.html
http://freakshare.com/files/1cnju3ux/MoS3dsbchamako.part12.rar.html
http://freakshare.com/files/vq78c303/MoS3dsbchamako.part13.rar.html
http://freakshare.com/files/kr8skygg/MoS3dsbchamako.part14.rar.html
http://freakshare.com/files/gavaby7r/MoS3dsbchamako.part15.rar.html
http://freakshare.com/files/u8gxwoa4/MoS3dsbchamako.part16.rar.html
http://freakshare.com/files/tmjo7qnu/MoS3dsbchamako.part17.rar.html
http://freakshare.com/files/tyv8x79s/MoS3dsbchamako.part18.rar.html
http://freakshare.com/files/p4pypi9n/MoS3dsbchamako.part19.rar.html
http://freakshare.com/files/x9v3jqe8/MoS3dsbchamako.part20.rar.html
http://freakshare.com/files/2nr2ejr4/MoS3dsbchamako.part21.rar.html
http://freakshare.com/files/zr6be2pb/MoS3dsbchamako.part22.rar.html
http://freakshare.com/files/tj6hflqh/MoS3dsbchamako.part23.rar.html
http://freakshare.com/files/jsu8zkh3/MoS3dsbchamako.part24.rar.html
http://freakshare.com/files/eujl6tev/MoS3dsbchamako.part25.rar.html
http://freakshare.com/files/77no0nxg/MoS3dsbchamako.part26.rar.html
http://freakshare.com/files/uflhtp5i/MoS3dsbchamako.part27.rar.html
http://freakshare.com/files/g4b8mas1/MoS3dsbchamako.part10.rar.html

UPLOADED

http://ul.to/bhet15gz
http://ul.to/gzdir9xz
http://ul.to/3fcwg8wh
http://ul.to/5x2iu3vf
http://ul.to/0ump4qhw
http://ul.to/c0yb0j3v
http://ul.to/xjrl6kq3
http://ul.to/e5tyu76j
http://ul.to/ndnfdtv4
http://ul.to/ieargpvf
http://ul.to/jwt5rnj7
http://ul.to/78d5ef7g
http://ul.to/jk6rrw1l
http://ul.to/ntdn03n2
http://ul.to/e9ov5jlo
http://ul.to/r5vkenho
http://ul.to/15iudzwb
http://ul.to/iexj4fi4
http://ul.to/04e3jol7
http://ul.to/6ehdr4gm
http://ul.to/w8cilaiu
http://ul.to/75wpy00u
http://ul.to/myphbqrp
http://ul.to/xwy0c360
http://ul.to/c2jgob9k
http://ul.to/1eteq8ix
http://ul.to/wchmbk77
http://ul.to/0czb5or8
http://ul.to/8ohrupnj

PUTLOCKER
Lo sentimos, este contenido está visible solamente para usuarios registrados. Click aquí para Registrarse

MEGA
Lo sentimos, este contenido está visible solamente para usuarios registrados. Click aquí para Registrarse

SAMPLE
Lo sentimos, este contenido está visible solamente para usuarios registrados. Click aquí para Registrarse


La Contraseña para todos los archivos es “chamako” (sin comillas y todo minusculas)

Apoyame comprando tu cuenta premium de estos servidores

Compra tu cuenta premium cada mes >>> FreakShare

Compra tu cuenta premium cada mes  >>> Uploaded

13 Comentarios

Deja un comentario

Compra premium Uploaded

uploaded

Facebook

Peliculas en 3D

Monsters Univrsity 3D

Pacific Rim 3D

Croods 3D

Star Trek 3D

Guerra Mundial Z 3D

Iron MAN 3 3D

Rip Departamento 3D

Los Pitufos 2 3 3D

Man of Steel 3 3D

Mi Villano favorito 2 3D

Aviones 3D

Turbo 2013 3D

Turbo 2013 3D

Percy Jackson 2013 3D

Gatsby 3D

Epic 3D

Gi Joe 2 3D

Hansel y Gretel 3D

Hansel y Gretel 3D

Oz 3D

The Hobbit 3D

Ilusionautas 3D

Life of Pi 3D

El Origen de los Guardianes 3D

Ralph el Demoledor 3D

Silent Hill Revelation 3D

Monster 3D

Monster 3D

Monster 3D

DREDD 3D 1080P

Brave 3D 1080P

Series en DVD

Spartacus Vengeance Season  2 DVD The Big Bang Theory Season 5 DVD Homeland Season 1 DVD Once Upon a Time Season 1 DVD The Walking Dead Season 2 DVD