Mi Villano Favorito 2 (2013) [3D SBS][BDRip 1080p][Español Latino DTS/Ingles DTS][Sub.Español Completos 3D]

escrito por Chamako el 22 October 2013

10 comentarios

ZV3b5p

Ahora que el incansable y emprendedor Gru ha dejado atrás una vida dedicada a las fechorías para criar a Margo, Edith y Agnes, dispone de mucho tiempo libre para disfrutarlo con ellas, el Dr. Nefario y los minions. Pero, justo cuando empieza a adaptarse a su papel de hombre de familia, una organización mundial ultrasecreta dedicada a la lucha contra el mal llama a su puerta. Junto con su nueva compañera de aventuras, Lucy Wilde, Gru tendrá que descubrir quién es el responsable de un espectacular y malévolo plan y llevarlo ante la justicia. Y es que hace falta echar mano del mayor ex-villano del mundo para atrapar a quien aspira a ocupar ese lugar.


Año 2013
Duración 98 min.
País Estados Unidos
Director Pierre Coffin, Chris Renaud
Guión Ken Daurio, Cinco Paul
Música Heitor Pereira, Pharrell Williams
Fotografía Animation
Reparto Animation
Productora Illumination Entertainment / Universal Pictures
Género Animación. Comedia. Ciencia ficción. Infantil | Familia. Secuela. 3-D
Web Oficial http://www.gru2.es/


c2013-10-22-17h25m47s235.png
c2013-10-22-17h27m20s125.png
c2013-10-22-17h26m45s30.png
c2013-10-22-17h27m32s242.png

General
Unique ID : 186807168381951927133662768892176333201 (0x8C89C07F3997942D95FB9CE93DAD7991)
Complete name : Despicable.Me.2.2013.3D.BluRay.HSBS.1080p.DTS.Latino.Chamako.mkv
Format : Matroska
Format version : Version 2
File size : 8.58 GiB
Duration : 1h 38mn
Overall bit rate : 12.5 Mbps
Movie name : www.Chamako.Net – Despicable Me 2 (2013) 3D SBS BDRip 1080p Latino
Encoded date : UTC 2013-10-22 23:29:11
Writing application : mkvmerge v3.4.0 (‘Rapunzel’) built on May 15 2010 09:38:20
Writing library : libebml v0.8.0 + libmatroska v0.9.0
Attachment : Yes / Yes

Video
ID : 1
Format : AVC
Format/Info : Advanced Video Codec
Format profile : High@L4.1
MultiView_Count : 2
MultiView_Layout : Right Eye
Format settings, CABAC : Yes
Format settings, ReFrames : 4 frames
Codec ID : V_MPEG4/ISO/AVC
Duration : 1h 38mn
Bit rate : 10.2 Mbps
Width : 1 920 pixels
Height : 1 080 pixels
Display aspect ratio : 16:9
Frame rate mode : Constant
Frame rate : 23.976 fps
Color space : YUV
Chroma subsampling : 4:2:0
Bit depth : 8 bits
Scan type : Progressive
Bits/(Pixel*Frame) : 0.206
Stream size : 6.85 GiB (80%)
Title : www.Chamako.Net – Despicable Me 2 (2013)
Writing library : x264 core 130 r2273 b3065e6
Encoding settings : cabac=1 / ref=3 / deblock=1:0:0 / analyse=0×3:0×113 / me=hex / subme=7 / psy=1 / psy_rd=1.00:0.00 / mixed_ref=1 / me_range=16 / chroma_me=1 / trellis=1 / 8x8dct=1 / cqm=0 / deadzone=21,11 / fast_pskip=1 / chroma_qp_offset=-2 / threads=12 / lookahead_threads=2 / sliced_threads=0 / nr=0 / decimate=1 / interlaced=0 / bluray_compat=0 / constrained_intra=0 / bframes=3 / b_pyramid=2 / b_adapt=1 / b_bias=0 / direct=1 / weightb=1 / open_gop=0 / weightp=2 / keyint=96 / keyint_min=9 / scenecut=40 / intra_refresh=0 / rc_lookahead=40 / rc=2pass / mbtree=1 / bitrate=10240 / ratetol=1.0 / qcomp=0.60 / qpmin=0 / qpmax=69 / qpstep=4 / cplxblur=20.0 / qblur=0.5 / ip_ratio=1.40 / aq=1:1.00
Default : No
Forced : No

Audio #1
ID : 2
Format : DTS
Format/Info : Digital Theater Systems
Mode : 16
Format settings, Endianness : Big
Codec ID : A_DTS
Duration : 1h 38mn
Bit rate mode : Constant
Bit rate : 768 Kbps
Channel(s) : 6 channels
Channel positions : Front: L C R, Side: L R, LFE
Sampling rate : 48.0 KHz
Bit depth : 24 bits
Compression mode : Lossy
Stream size : 539 MiB (6%)
Title : www.Chamako.Net – Latino DTS
Language : Spanish
Default : Yes
Forced : No

Audio #2
ID : 3
Format : DTS
Format/Info : Digital Theater Systems
Mode : 16
Format settings, Endianness : Big
Codec ID : A_DTS
Duration : 1h 38mn
Bit rate mode : Constant
Bit rate : 1 509 Kbps
Channel(s) : 6 channels
Channel positions : Front: L C R, Side: L R, LFE
Sampling rate : 48.0 KHz
Bit depth : 24 bits
Compression mode : Lossy
Delay relative to video : 11ms
Stream size : 1.03 GiB (12%)
Title : www.Chamako.Net – English DTS
Language : English
Default : No
Forced : No

Text
ID : 4
Format : ASS
Codec ID : S_TEXT/ASS
Codec ID/Info : Advanced Sub Station Alpha
Compression mode : Lossless
Title : www.Chamako.Net – Spanish Completos
Language : Spanish
Default : Yes
Forced : No

Menu
00:00:00.000 : :1 – 0:00:00
00:03:22.994 : :2 – 0:03:22
00:08:04.734 : :3 – 0:08:04
00:15:50.867 : :4 – 0:15:50
00:18:28.232 : :5 – 0:18:28
00:24:36.892 : :6 – 0:24:36
00:30:50.724 : :7 – 0:30:50
00:34:40.704 : :8 – 0:34:40
00:40:48.279 : :9 – 0:40:48
00:46:26.200 : :10 – 0:46:26
00:51:23.122 : :11 – 0:51:23
00:56:27.426 : :12 – 0:56:27
01:00:00.472 : :13 – 1:00:00
01:03:27.053 : :14 – 1:03:27
01:08:44.078 : :15 – 1:08:44
01:14:01.979 : :16 – 1:14:01
01:18:08.058 : :17 – 1:18:08
01:22:33.907 : :18 – 1:22:33
01:27:09.099 : :19 – 1:27:09
01:30:33.720 : :20 – 1:30:33

FREAKSHARE

http://freakshare.com/files/ygr936e9/MV2I3DChamako.part01.rar.html

http://freakshare.com/files/j1f5m3r2/MV2I3DChamako.part01.rev.html

http://freakshare.com/files/fs2lh7zz/MV2I3DChamako.part02.rar.html

http://freakshare.com/files/loymnixd/MV2I3DChamako.part02.rev.html

http://freakshare.com/files/64u2jb8d/MV2I3DChamako.part03.rar.html

http://freakshare.com/files/r6lsax2p/MV2I3DChamako.part04.rar.html

http://freakshare.com/files/t7x7ejo2/MV2I3DChamako.part05.rar.html

http://freakshare.com/files/8w06kago/MV2I3DChamako.part06.rar.html

http://freakshare.com/files/efjf7nzu/MV2I3DChamako.part07.rar.html

http://freakshare.com/files/44obc3dq/MV2I3DChamako.part08.rar.html

http://freakshare.com/files/41wglhy2/MV2I3DChamako.part09.rar.html

http://freakshare.com/files/xxmdwwjy/MV2I3DChamako.part10.rar.html

http://freakshare.com/files/twkwphcu/MV2I3DChamako.part11.rar.html

http://freakshare.com/files/ykthczhe/MV2I3DChamako.part12.rar.html

http://freakshare.com/files/jph2t4gs/MV2I3DChamako.part13.rar.html

http://freakshare.com/files/oe5zys6w/MV2I3DChamako.part14.rar.html

http://freakshare.com/files/xye8n63p/MV2I3DChamako.part15.rar.html

http://freakshare.com/files/bppvm0sd/MV2I3DChamako.part16.rar.html

http://freakshare.com/files/dnej6t55/MV2I3DChamako.part17.rar.html

http://freakshare.com/files/c7lapgjd/MV2I3DChamako.part18.rar.html

http://freakshare.com/files/bcxr7mfi/MV2I3DChamako.part19.rar.html

http://freakshare.com/files/g9xcg0ee/MV2I3DChamako.part20.rar.html

http://freakshare.com/files/9dxtsnw0/MV2I3DChamako.sfv.html

UPLOADED

http://ul.to/jghubsci

http://ul.to/dsvi6saj

http://ul.to/adikl80p

http://ul.to/qtfvacvc

http://ul.to/6qdq04y7

http://ul.to/t1b31zj7

http://ul.to/tiza5pod

http://ul.to/lnserqv2

http://ul.to/5mwvbg5z

http://ul.to/pjl01rmz

http://ul.to/4o1e6wmc

http://ul.to/zpjhddir

http://ul.to/trp522di

http://ul.to/qo81mypx

http://ul.to/f1at05nr

http://ul.to/45q8utml

http://ul.to/0p4bhmoe

http://ul.to/cjzk41mu

http://ul.to/o4kha7f6

http://ul.to/dljjhfpc

http://ul.to/51z5708n

http://ul.to/akh1u3a3

http://ul.to/w2mynrao

PUTLOCKER

Lo sentimos, este contenido está visible solamente para usuarios registrados. Click aquí para Registrarse

MEGA

Lo sentimos, este contenido está visible solamente para usuarios registrados. Click aquí para Registrarse

SAMPLE


La Contraseña para todos los archivos es “chamako” (sin comillas y todo minusculas)

Apoyame comprando tu cuenta premium de estos servidores

Compra tu cuenta premium cada mes >>> FreakShare

Compra tu cuenta premium cada mes  >>> Uploaded

10 comentarios

  1. german_101 says:

    Maravilloso bajando por PL, saludos brod….. y gracias por aportes de calidad Brip.

  2. damian666 says:

    Eres simplemente impresionante!!!!

  3. joaquin says:

    increible, no cabe duda que es la mejor pagina de estrenos en 3D

  4. maurumc says:

    como puedo descargar desde mega?

  5. manya663 says:

    gracias animal por tus pelis!

  6. juantheghost says:

    excelente aporte gracias

  7. Kenshin says:

    Gracias chamako por tus aportes, cuando se podra volver a registrar para poder bajarlo de mega o putlocker.

  8. Natt says:

    Links 3 y 5 caídos!! Puedes resubirlos??

  9. X-3 says:

    ACTUALIZA TUS PELICULAS QUE TUS LINKS ESTAN MUERTOS
    O NO REVISAS TUS PAGINAS ??????????????????

  10. Nick says:

    Links 3 y 5 caídos!!! PUEDES subirlos de nuevo?

Escribir un comentario