Monsters University (2013) [3D SBS][BDRip 1080p][Español Latino 5.1/Ingles DTS][Sub.Español 3D]

Por Chamako / hace 3 años / 6 Comentarios ».

Resubido 07/01/14
monsters Desde que era un pequeño monstruo y antes de entrar en la universidad, Mike Wazowski (voz de Billy Crystal) ya soñaba con convertirse en un Asustador y él sabía, mejor que nadie, que los mejores asustadores salen de Monstruos University (MU). Pero durante su primer semestre en la MU, los planes de Mike se van al garete al cruzarse con el popular James P. Sullivan, “Sulley” (voz de John Goodman), un Asustador nato. Por culpa de su desenfrenado espíritu competitivo, ambos son expulsados del prestigioso Programa de Sustos de la Universidad. Y para empeorar las cosas, se verán obligados a trabajar juntos con una extraña pandilla de monstruos inadaptados… si es que quieren arreglar su situación.

Título: Monstruos University
Título original: Monsters University
País: USA
Estreno en USA: 21/06/2013
Estreno en España: 21/06/2013
Productora: Pixar Animation Studios, Walt Disney Pictures
Director: Dan Scanlon
Guión: Andrew Stanton, Pete Docter
Reparto: (Voces de) Billy Crystal, John Goodman, Steve Buscemi, Dave Foley, Julia Sweeney, Joel Murray, Peter Sohn
Calificación: Apta para todos los públicos
c2013-10-13-14h38m55s194.png c2013-10-13-14h39m40s158.png c2013-10-13-14h41m04s234.png

General Unique ID : 223334976329840922525955690675624972290 (0xA804C0798569C036B5EA71BBA81B9002) Complete name : Monsters.3DSBS.Latino.Chamako.mkv Format : Matroska Format version : Version 2 File size : 8.43 GiB Duration : 1h 43mn Overall bit rate : 11.6 Mbps Movie name : www.Chamako.Net – Monsters University (2013) 3D SBS BDRip 1080p Latino Encoded date : UTC 2013-10-13 13:06:17 Writing application : mkvmerge v3.4.0 (‘Rapunzel’) built on May 15 2010 09:38:20 Writing library : libebml v0.8.0 + libmatroska v0.9.0 Video ID : 1 Format : AVC Format/Info : Advanced Video Codec Format profile : High@L4.1 Format settings, CABAC : Yes Format settings, ReFrames : 2 frames Codec ID : V_MPEG4/ISO/AVC Duration : 1h 43mn Bit rate : 10.1 Mbps Width : 1 920 pixels Height : 1 080 pixels Display aspect ratio : 16:9 Frame rate mode : Constant Frame rate : 23.976 fps Color space : YUV Chroma subsampling : 4:2:0 Bit depth : 8 bits Scan type : Progressive Bits/(Pixel*Frame) : 0.203 Stream size : 7.33 GiB (87%) Title : www.Chamako.Net – Monsters University (2013) Writing library : x264 core Language : English Default : No Forced : No Color primaries : BT.709 Transfer characteristics : BT.709 Matrix coefficients : BT.709 Audio #1 ID : 2 Format : AC-3 Format/Info : Audio Coding 3 Mode extension : CM (complete main) Format settings, Endianness : Big Codec ID : A_AC3 Duration : 1h 43mn Bit rate mode : Constant Bit rate : 640 Kbps Channel(s) : 6 channels Channel positions : Front: L C R, Side: L R, LFE Sampling rate : 48.0 KHz Bit depth : 16 bits Compression mode : Lossy Stream size : 475 MiB (6%) Title : www.Chamako.Net – Latino 5.1 Language : Spanish Default : Yes Forced : No Audio #2 ID : 3 Format : AC-3 Format/Info : Audio Coding 3 Mode extension : CM (complete main) Format settings, Endianness : Big Codec ID : A_AC3 Duration : 1h 43mn Bit rate mode : Constant Bit rate : 640 Kbps Channel(s) : 6 channels Channel positions : Front: L C R, Side: L R, LFE Sampling rate : 48.0 KHz Bit depth : 16 bits Compression mode : Lossy Stream size : 475 MiB (6%) Title : www.Chamako.Net – English Language : English Default : No Forced : No Text ID : 4 Format : ASS Codec ID : S_TEXT/ASS Codec ID/Info : Advanced Sub Station Alpha Compression mode : Lossless Title : www.Chamako.Net – Spanish Language : Spanish Default : No Forced : No Menu 00:00:00.000 : en:00:00:00.000 00:06:26.720 : en:00:06:26.720 00:07:06.885 : en:00:07:06.885 00:10:54.112 : en:00:10:54.112 00:12:19.947 : en:00:12:19.947 00:16:09.969 : en:00:16:09.969 00:18:15.636 : en:00:18:15.636 00:19:37.593 : en:00:19:37.593 00:21:06.849 : en:00:21:06.849 00:23:43.630 : en:00:23:43.630 00:29:22.719 : en:00:29:22.719 00:30:39.462 : en:00:30:39.462 00:33:38.099 : en:00:33:38.099 00:36:30.980 : en:00:36:30.980 00:38:19.422 : en:00:38:19.422 00:39:22.568 : en:00:39:22.568 00:45:13.335 : en:00:45:13.335 00:47:14.831 : en:00:47:14.831 00:51:08.148 : en:00:51:08.148 00:55:21.192 : en:00:55:21.192 00:57:30.321 : en:00:57:30.321 01:01:42.239 : en:01:01:42.239 01:04:37.289 : en:01:04:37.289 01:07:33.006 : en:01:07:33.006 01:14:11.321 : en:01:14:11.321 01:18:07.849 : en:01:18:07.849 01:19:25.718 : en:01:19:25.718 01:23:53.402 : en:01:23:53.402 01:24:38.656 : en:01:24:38.656 01:28:00.232 : en:01:28:00.232 01:32:51.356 : en:01:32:51.356 01:34:24.032 : en:01:34:24.032

FREAKSHARE

http://freakshare.com/files/m7ws0ojl/M0N23DChamako.part01.rar.html
http://freakshare.com/files/39cq71pc/M0N23DChamako.part01.rev.html
http://freakshare.com/files/866xxzmz/M0N23DChamako.part02.rar.html
http://freakshare.com/files/79iacjhs/M0N23DChamako.part02.rev.html
http://freakshare.com/files/nqhlxdel/M0N23DChamako.part03.rar.html
http://freakshare.com/files/yupn9uch/M0N23DChamako.part04.rar.html
http://freakshare.com/files/ucsa0ktn/M0N23DChamako.part05.rar.html
http://freakshare.com/files/l338hade/M0N23DChamako.part06.rar.html
http://freakshare.com/files/n2vqs2vn/M0N23DChamako.part07.rar.html
http://freakshare.com/files/94bx77ow/M0N23DChamako.part08.rar.html
http://freakshare.com/files/x88ju44x/M0N23DChamako.part09.rar.html
http://freakshare.com/files/fy9ly2yn/M0N23DChamako.part10.rar.html
http://freakshare.com/files/klce8g17/M0N23DChamako.part11.rar.html
http://freakshare.com/files/fsrqizm4/M0N23DChamako.part12.rar.html
http://freakshare.com/files/six0b4h8/M0N23DChamako.part13.rar.html
http://freakshare.com/files/2i7q26l7/M0N23DChamako.part14.rar.html
http://freakshare.com/files/7nk9ljui/M0N23DChamako.part15.rar.html
http://freakshare.com/files/px60cu4a/M0N23DChamako.part16.rar.html
http://freakshare.com/files/0kq0u9bm/M0N23DChamako.part17.rar.html
http://freakshare.com/files/8ef5v575/M0N23DChamako.part18.rar.html

UPLOADED

http://ul.to/p35falbz
http://ul.to/jcy1sn5f
http://ul.to/8x49svvj
http://ul.to/vwpmlq3o
http://ul.to/0meri454
http://ul.to/03narxn1
http://ul.to/cwatp5q4
http://ul.to/l0jl17i8
http://ul.to/umoaps8l
http://ul.to/j4xfk48d
http://ul.to/ptaik0mz
http://ul.to/xzpyr04b
http://ul.to/n7nl96m4
http://ul.to/dvmek6jk
http://ul.to/twk7ib4v
http://ul.to/qfpwv7l6
http://ul.to/336uht9y
http://ul.to/nbgdzown
http://ul.to/n823evmp
http://ul.to/089if7uu

PUTLOCKER Lo sentimos, este contenido está visible solamente para usuarios registrados. Click aquí para Registrarse MEGA Lo sentimos, este contenido está visible solamente para usuarios registrados. Click aquí para Registrarse


La Contraseña para todos los archivos es “chamako” (sin comillas y todo minusculas)

Apoyame comprando tu cuenta premium de estos servidores

Compra tu cuenta premium cada mes >>> FreakShare

Compra tu cuenta premium cada mes  >>> Uploaded

6 Comentarios

Deja un comentario

Compra premium Uploaded

uploaded

Facebook

Peliculas en 3D

Monsters Univrsity 3D

Pacific Rim 3D

Croods 3D

Star Trek 3D

Guerra Mundial Z 3D

Iron MAN 3 3D

Rip Departamento 3D

Los Pitufos 2 3 3D

Man of Steel 3 3D

Mi Villano favorito 2 3D

Aviones 3D

Turbo 2013 3D

Turbo 2013 3D

Percy Jackson 2013 3D

Gatsby 3D

Epic 3D

Gi Joe 2 3D

Hansel y Gretel 3D

Hansel y Gretel 3D

Oz 3D

The Hobbit 3D

Ilusionautas 3D

Life of Pi 3D

El Origen de los Guardianes 3D

Ralph el Demoledor 3D

Silent Hill Revelation 3D

Monster 3D

Monster 3D

Monster 3D

DREDD 3D 1080P

Brave 3D 1080P

Series en DVD

Spartacus Vengeance Season  2 DVD The Big Bang Theory Season 5 DVD Homeland Season 1 DVD Once Upon a Time Season 1 DVD The Walking Dead Season 2 DVD