Oz. Un mundo de Fantasía (2013) [3D SBS][BDRip 1080p][Español Latino 5.1/Ingles DTS][Sub.Español Completos & Forzados 3D]

Por Chamako / hace 3 años / 9 Comentarios ».

6348

Baum. Oscar Diggs (James Franco), un mago de circo de poca monta y de dudosa reputación, tiene que abandonar la polvorienta Kansas y dirigirse al brillante País de Oz. Está convencido que le ha tocado el premio gordo y que la fama y la fortuna están a su alcance. Pero las cosas se tuercen cuando conoce a tres brujas: Theodora (Mila Kunis), Evanora (Rachel Weisz) y Glinda (Michelle Williams), que no están nada convencidas que Oscar sea el gran mago que todo el mundo esperaba ansiosamente. Oscar tiene que enfrentarse a todo tipo de problemas en el País de Oz y también a sus habitantes. Así que deberá averiguar lo antes posible quién es bueno y quién es malo. Oscar utiliza sus juegos de magia, con ingenio, fantasía y algo de brujería y además de transformarse en el gran y poderoso Mago de Oz se convertirá en un hombre mejor.

TITULO: Oz. Un mundo de fantasía
TITULO ORIGINAL: Oz The Great And The Powerful
PAIS: USA
ESTRENO EN USA: 08/03/2013
ESTRENO EN ESPAÑA: 08/03/2013
PRODUCTORA: Walt Disney Pictures
DIRECTOR: Sam Raimi
GUION: David Lindsay-Abaire
REPARTO: James Franco, Mila Kunis, Michelle Williams, Rachel Weisz, Joey King, Zach Braff, Abigail Spencer, Bruce Campbell
CALIFICACION: No recomendada para menores de 7 años
GENERO: Fantasía





General
Unique ID : 200794526615495753991646524020080642099 (0x970F9E80781CFF2489E01943B3660833)
Complete name : Oz 3D SBS 1080P Latino By ChAMAKO.mkv
Format : Matroska
Format version : Version 2
File size : 11.3 GiB
Duration : 2h 10mn
Overall bit rate : 12.4 Mbps
Movie name : Oz The Great And Powerful 2013 3D SBS 1080P Latino By Chamako
Encoded date : UTC 2013-05-31 04:12:32
Writing application : mkvmerge v3.4.0 (‘Rapunzel’) built on May 15 2010 09:38:20
Writing library : libebml v0.8.0 + libmatroska v0.9.0

Video
ID : 1
Format : AVC
Format/Info : Advanced Video Codec
Format profile : High@L4.1
MultiView_Count : 2
MultiView_Layout : Right Eye
Format settings, CABAC : Yes
Format settings, ReFrames : 4 frames
Codec ID : V_MPEG4/ISO/AVC
Duration : 2h 10mn
Bit rate : 9 989 Kbps
Width : 1 920 pixels
Height : 1 080 pixels
Display aspect ratio : 16:9
Frame rate mode : Constant
Frame rate : 23.976 fps
Color space : YUV
Chroma subsampling : 4:2:0
Bit depth : 8 bits
Scan type : Progressive
Bits/(Pixel*Frame) : 0.201
Stream size : 9.11 GiB (81%)
Title : Chamako – Oz The Great And Powerful 2013
Writing library : x264 core 133 r2334 a3ac64b
Encoding settings : cabac=1 / ref=4 / deblock=1:-3:-3 / analyse=0x3:0x113 / me=umh / subme=10 / psy=1 / psy_rd=1.00:0.15 / mixed_ref=1 / me_range=32 / chroma_me=1 / trellis=2 / 8x8dct=1 / cqm=0 / deadzone=21,11 / fast_pskip=1 / chroma_qp_offset=-3 / threads=36 / lookahead_threads=3 / sliced_threads=0 / nr=0 / decimate=1 / interlaced=0 / bluray_compat=0 / constrained_intra=0 / bframes=6 / b_pyramid=2 / b_adapt=1 / b_bias=0 / direct=3 / weightb=1 / open_gop=0 / weightp=2 / keyint=250 / keyint_min=23 / scenecut=40 / intra_refresh=0 / rc_lookahead=40 / rc=crf / mbtree=1 / crf=16.0 / qcomp=0.60 / qpmin=10 / qpmax=69 / qpstep=4 / vbv_maxrate=40000 / vbv_bufsize=30000 / crf_max=0.0 / nal_hrd=none / ip_ratio=1.40 / aq=1:1.00
Default : No
Forced : No

Audio #1
ID : 2
Format : AC-3
Format/Info : Audio Coding 3
Mode extension : CM (complete main)
Format settings, Endianness : Big
Codec ID : A_AC3
Duration : 2h 10mn
Bit rate mode : Constant
Bit rate : 640 Kbps
Channel(s) : 6 channels
Channel positions : Front: L C R, Side: L R, LFE
Sampling rate : 48.0 KHz
Bit depth : 16 bits
Compression mode : Lossy
Stream size : 597 MiB (5%)
Title : Chamako – Latino 5.1
Language : Spanish
Default : Yes
Forced : No

Audio #2
ID : 3
Format : DTS
Format/Info : Digital Theater Systems
Mode : 16
Format settings, Endianness : Big
Codec ID : A_DTS
Duration : 2h 10mn
Bit rate mode : Constant
Bit rate : 1 509 Kbps
Channel(s) : 6 channels
Channel positions : Front: L C R, Side: L R, LFE
Sampling rate : 48.0 KHz
Bit depth : 24 bits
Compression mode : Lossy
Delay relative to video : 11ms
Stream size : 1.38 GiB (12%)
Title : Chamako – Ingles DTS
Language : English
Default : No
Forced : No

Text #1
ID : 4
Format : UTF-8
Codec ID : S_TEXT/UTF8
Codec ID/Info : UTF-8 Plain Text
Title : Chamako – Spanish Completos
Language : Spanish
Default : No
Forced : No

Text #2
ID : 5
Format : ASS
Codec ID : S_TEXT/ASS
Codec ID/Info : Advanced Sub Station Alpha
Compression mode : Lossless
Title : Chamako – Spanish Forzados 3D
Language : Spanish
Default : Yes
Forced : Yes

Menu
00:00:00.000 : en:00:00:00.000
00:02:37.699 : en:00:02:37.699
00:06:16.960 : en:00:06:16.960
00:09:57.555 : en:00:09:57.555
00:11:32.692 : en:00:11:32.692
00:15:20.753 : en:00:15:20.753
00:17:47.191 : en:00:17:47.191
00:20:29.478 : en:00:20:29.478
00:24:01.982 : en:00:24:01.982
00:24:49.780 : en:00:24:49.780
00:27:01.662 : en:00:27:01.662
00:29:37.359 : en:00:29:37.359
00:32:43.420 : en:00:32:43.420
00:34:30.193 : en:00:34:30.193
00:37:22.657 : en:00:37:22.657
00:38:57.377 : en:00:38:57.377
00:40:39.145 : en:00:40:39.145
00:42:09.944 : en:00:42:09.944
00:42:52.445 : en:00:42:52.445
00:45:33.481 : en:00:45:33.481
00:47:22.840 : en:00:47:22.840
00:48:32.409 : en:00:48:32.409
00:53:29.832 : en:00:53:29.832
00:55:22.653 : en:00:55:22.653
00:57:15.932 : en:00:57:15.932
00:59:10.839 : en:00:59:10.839
01:02:05.263 : en:01:02:05.263
01:05:33.221 : en:01:05:33.221
01:06:21.102 : en:01:06:21.102
01:09:55.358 : en:01:09:55.358
01:12:20.836 : en:01:12:20.836
01:15:37.783 : en:01:15:37.783
01:18:20.321 : en:01:18:20.321
01:19:47.783 : en:01:19:47.783
01:21:27.883 : en:01:21:27.883
01:26:16.171 : en:01:26:16.171
01:28:08.783 : en:01:28:08.783
01:30:33.219 : en:01:30:33.219
01:34:24.117 : en:01:34:24.117
01:36:57.437 : en:01:36:57.437
01:37:35.975 : en:01:37:35.975
01:41:30.876 : en:01:41:30.876
01:42:30.394 : en:01:42:30.394
01:45:51.762 : en:01:45:51.762
01:48:33.424 : en:01:48:33.424
01:51:23.802 : en:01:51:23.802
01:54:26.318 : en:01:54:26.318
01:55:54.072 : en:01:55:54.072
01:57:58.405 : en:01:57:58.405
01:59:34.417 : en:01:59:34.417
02:02:49.571 : en:02:02:49.571
02:04:32.757 : en:02:04:32.757

FREAKSHARE

http://freakshare.com/files/t0wr5mgu/oz3dsbschamako.part01.rar.html
http://freakshare.com/files/p9b7l9l6/oz3dsbschamako.part01.rev.html
http://freakshare.com/files/w2zlaxk0/oz3dsbschamako.part02.rar.html
http://freakshare.com/files/x04j4nwd/oz3dsbschamako.part02.rev.html
http://freakshare.com/files/556k9fzf/oz3dsbschamako.part03.rar.html
http://freakshare.com/files/vmo34wex/oz3dsbschamako.part04.rar.html
http://freakshare.com/files/84pwdltp/oz3dsbschamako.part05.rar.html
http://freakshare.com/files/zhjzns5y/oz3dsbschamako.part06.rar.html
http://freakshare.com/files/q2ylo9hv/oz3dsbschamako.part07.rar.html
http://freakshare.com/files/slteuv9m/oz3dsbschamako.part08.rar.html
http://freakshare.com/files/hyrgh60r/oz3dsbschamako.part09.rar.html
http://freakshare.com/files/1n5mjcr4/oz3dsbschamako.part10.rar.html
http://freakshare.com/files/gp3x3oio/oz3dsbschamako.part11.rar.html
http://freakshare.com/files/7um8ojik/oz3dsbschamako.part12.rar.html
http://freakshare.com/files/yfbiaibf/oz3dsbschamako.part13.rar.html
http://freakshare.com/files/meygm8qm/oz3dsbschamako.part14.rar.html
http://freakshare.com/files/s3wwouvx/oz3dsbschamako.part15.rar.html
http://freakshare.com/files/8bt3izr8/oz3dsbschamako.part16.rar.html
http://freakshare.com/files/ow9pesdm/oz3dsbschamako.part17.rar.html

UPLOADED

http://ul.to/rix0pl6h
http://ul.to/85aurj7m
http://ul.to/nft9ihzo
http://ul.to/gcy4cs13
http://ul.to/m7g16och
http://ul.to/0r7ejlro
http://ul.to/h0v9nlie
http://ul.to/pm2w4t9w
http://ul.to/j6beft1p
http://ul.to/d6zo4n7m
http://ul.to/rnuvhf25
http://ul.to/4xqvkcuu
http://ul.to/wkb48gbo
http://ul.to/r0y8cndg
http://ul.to/r3i4tvtr
http://ul.to/a8c1m5i6
http://ul.to/dslcc7i1
http://ul.to/jsxdkyrc
http://ul.to/jp6ls239

MEGA
Lo sentimos, este contenido está visible solamente para usuarios registrados. Click aquí para Registrarse


La Contraseña para todos los archivos es “chamako” (sin comillas y todo minusculas)

Apoyame comprando tu cuenta premium de estos servidores

Compra tu cuenta premium cada mes >>> FreakShare

Compra tu cuenta premium cada mes  >>> Uploaded

9 Comentarios

Deja un comentario

Compra premium Uploaded

uploaded

Facebook

Peliculas en 3D

Monsters Univrsity 3D

Pacific Rim 3D

Croods 3D

Star Trek 3D

Guerra Mundial Z 3D

Iron MAN 3 3D

Rip Departamento 3D

Los Pitufos 2 3 3D

Man of Steel 3 3D

Mi Villano favorito 2 3D

Aviones 3D

Turbo 2013 3D

Turbo 2013 3D

Percy Jackson 2013 3D

Gatsby 3D

Epic 3D

Gi Joe 2 3D

Hansel y Gretel 3D

Hansel y Gretel 3D

Oz 3D

The Hobbit 3D

Ilusionautas 3D

Life of Pi 3D

El Origen de los Guardianes 3D

Ralph el Demoledor 3D

Silent Hill Revelation 3D

Monster 3D

Monster 3D

Monster 3D

DREDD 3D 1080P

Brave 3D 1080P

Series en DVD

Spartacus Vengeance Season  2 DVD The Big Bang Theory Season 5 DVD Homeland Season 1 DVD Once Upon a Time Season 1 DVD The Walking Dead Season 2 DVD