Pacific Rim (2013) [3D SBS][BDRip 1080p][Español Latino 5.1/Ingles DTS][Sub.Español Completos&Forzados 3D]

Por Chamako / hace 3 años / 5 Comentarios ».

Resubido 08/01/14
pacific rim

Cuando legiones de monstruosas criaturas, denominadas Kaiju, comienzan a salir del mar, se inicia una guerra que acabará con millones de vidas y que consumirá los recursos de la humanidad durante interminables años. Para combatir a los Kaiju gigantes, se ha diseñado un tipo especial de arma: enormes robots, llamados Jaegers, que son controlados simultáneamente por dos pilotos cuyas mentes están bloqueadas en un puente neural. Pero incluso los Jaegers proporcionan poca defensa ante los incansables Kaiju. A punto de la derrota, las fuerzas que defienden a la humanidad no tienen otra elección que recurrir a dos insólitos héroes: un ex piloto acabado (Charlie Hunnam) y un aprendiz que todavía no se ha puesto a prueba (Rinko Kikuchi). Ambos se unen para traer a un legendario pero al parecer obsoleto Jaeger del pasado. Juntos, son la última esperanza de la humanidad frente al Apocalipsis que se avecina


Título:Pacific Rim
Título original: Pacific Rim
País: USA
Estreno en USA: 12/07/2013
Estreno en España:09/08/2013
Productora: Legendary Pictures, Warner Bros. Pictures
Director: Guillermo del Toro
Guión: Travis Beachmam
Reparto:Charlie Hunnam, Idris Elba, Rinko Kikuchi, Charlie Day, Ron Perlman, Robert Kazinsky, Max Martini, Clifton Collins, Jr., Burn Gorman, Larry Joe Campbell, Brad William Henke, Diego Klattenhoff
Calificación: No recomendada para menores de 12 años


c2013-10-07-21h26m11s234.png
c2013-10-07-21h24m47s149.png
c2013-10-07-21h25m50s21.png
c2013-10-07-21h27m38s60.png
c2013-10-07-21h27m49s179.png

General
Unique ID : 217518991630823336011985973072759859944 (0xA3A4A24A401D58EA80F83D22D23FAAE8)
Complete name : F:\NLR2-SENG-4\Descargas\pr3d2013.1080.hsbs-phd.1000\Pacific Rim 3D SBS 1080P Latino Chamako.mkv
Format : Matroska
Format version : Version 2
File size : 13.4 GiB
Duration : 2h 11mn
Overall bit rate : 14.7 Mbps
Movie name : www.Chamako.Net – Pacific Rim (2013) 3D SBS BDRip 1080p Latino 5.1
Encoded date : UTC 2013-10-07 22:41:43
Writing application : mkvmerge v3.4.0 (‘Rapunzel’) built on May 15 2010 09:38:20
Writing library : libebml v0.8.0 + libmatroska v0.9.0

Video
ID : 1
Format : AVC
Format/Info : Advanced Video Codec
Format profile : High@L4.1
MultiView_Count : 2
MultiView_Layout : Right Eye
Format settings, CABAC : Yes
Format settings, ReFrames : 4 frames
Codec ID : V_MPEG4/ISO/AVC
Duration : 2h 11mn
Bit rate : 12.2 Mbps
Width : 1 920 pixels
Height : 1 080 pixels
Display aspect ratio : 16:9
Frame rate mode : Constant
Frame rate : 23.976 fps
Color space : YUV
Chroma subsampling : 4:2:0
Bit depth : 8 bits
Scan type : Progressive
Bits/(Pixel*Frame) : 0.246
Stream size : 11.2 GiB (83%)
Title : www.Chamako.Net – Pacific Rim 2013
Language : English
Default : No
Forced : No

Audio #1
ID : 2
Format : AC-3
Format/Info : Audio Coding 3
Mode extension : CM (complete main)
Format settings, Endianness : Big
Codec ID : A_AC3
Duration : 2h 11mn
Bit rate mode : Constant
Bit rate : 640 Kbps
Channel(s) : 6 channels
Channel positions : Front: L C R, Side: L R, LFE
Sampling rate : 48.0 KHz
Bit depth : 16 bits
Compression mode : Lossy
Stream size : 601 MiB (4%)
Title : www.Chamako.Net – Latino 5.1
Language : Spanish
Default : Yes
Forced : No

Audio #2
ID : 3
Format : DTS
Format/Info : Digital Theater Systems
Mode : 16
Format settings, Endianness : Big
Codec ID : A_DTS
Duration : 2h 11mn
Bit rate mode : Constant
Bit rate : 1 509 Kbps
Channel(s) : 6 channels
Channel positions : Front: L C R, Side: L R, LFE
Sampling rate : 48.0 KHz
Bit depth : 24 bits
Compression mode : Lossy
Delay relative to video : 11ms
Stream size : 1.38 GiB (10%)
Title : www.Chamako.Net – English DTS
Language : English
Default : No
Forced : No

Text #1
ID : 4
Format : ASS
Codec ID : S_TEXT/ASS
Codec ID/Info : Advanced Sub Station Alpha
Compression mode : Lossless
Title : www.Chamako.Net – Spanish Completos
Language : Spanish
Default : No
Forced : No

Text #2
ID : 5
Format : ASS
Codec ID : S_TEXT/ASS
Codec ID/Info : Advanced Sub Station Alpha
Compression mode : Lossless
Title : www.Chamako.Net – Spanish Forzados 3D
Language : Spanish
Default : No
Forced : Yes

Menu
00:00:00.000 : en:00:00:00.000
00:09:09.132 : en:00:09:09.132
00:18:35.823 : en:00:18:35.823
00:23:04.341 : en:00:23:04.341
00:33:00.395 : en:00:33:00.395
00:42:44.896 : en:00:42:44.896
00:50:01.665 : en:00:50:01.665
01:01:09.666 : en:01:01:09.666
01:14:45.106 : en:01:14:45.106
01:22:21.311 : en:01:22:21.311
01:32:09.941 : en:01:32:09.941
01:41:55.609 : en:01:41:55.609
01:51:37.858 : en:01:51:37.858
01:59:21.029 : en:01:59:21.029
02:02:17.830 : en:02:02:17.830

FREAKSHARE

http://freakshare.com/files/0l29usyc/PR3DSBSChamako.part01.rar.html
http://freakshare.com/files/b3xm9zw2/PR3DSBSChamako.part01.rev.html
http://freakshare.com/files/yxbqvmu9/PR3DSBSChamako.part02.rar.html
http://freakshare.com/files/bbez27c2/PR3DSBSChamako.part02.rev.html
http://freakshare.com/files/vq4zuoey/PR3DSBSChamako.part03.rar.html
http://freakshare.com/files/ulvdnkhj/PR3DSBSChamako.part04.rar.html
http://freakshare.com/files/qz6dwt7t/PR3DSBSChamako.part05.rar.html
http://freakshare.com/files/grrlrjli/PR3DSBSChamako.part06.rar.html
http://freakshare.com/files/g5nufbt7/PR3DSBSChamako.part07.rar.html
http://freakshare.com/files/j6ba13ai/PR3DSBSChamako.part08.rar.html
http://freakshare.com/files/afkuz477/PR3DSBSChamako.part09.rar.html
http://freakshare.com/files/8g8hyq2w/PR3DSBSChamako.part10.rar.html
http://freakshare.com/files/pa7bdwhu/PR3DSBSChamako.part11.rar.html
http://freakshare.com/files/me3h73qv/PR3DSBSChamako.part12.rar.html
http://freakshare.com/files/q84y2s09/PR3DSBSChamako.part13.rar.html
http://freakshare.com/files/nnzjfhvj/PR3DSBSChamako.part14.rar.html
http://freakshare.com/files/92xdbzv4/PR3DSBSChamako.part15.rar.html
http://freakshare.com/files/w44fpe6z/PR3DSBSChamako.part16.rar.html
http://freakshare.com/files/kz1btov3/PR3DSBSChamako.part17.rar.html
http://freakshare.com/files/rigaqaed/PR3DSBSChamako.part18.rar.html
http://freakshare.com/files/nnuya02p/PR3DSBSChamako.part19.rar.html
http://freakshare.com/files/0hvz7a2z/PR3DSBSChamako.part20.rar.html
http://freakshare.com/files/l08aexwt/PR3DSBSChamako.part21.rar.html
http://freakshare.com/files/kx36oejy/PR3DSBSChamako.part22.rar.html
http://freakshare.com/files/8f6x7ucb/PR3DSBSChamako.part23.rar.html

UPLOADED

http://ul.to/190lh92v
http://ul.to/cquou958
http://ul.to/3z5ls3de
http://ul.to/9ksc1vh5
http://ul.to/8zpedxsw
http://ul.to/2ig68aji
http://ul.to/qbygherg
http://ul.to/sfssemv2
http://ul.to/leyqt0u0
http://ul.to/2urmhejc
http://ul.to/rezeuxkz
http://ul.to/7759gfqb
http://ul.to/9ce9ctlz
http://ul.to/xlbkaklx
http://ul.to/5bdad0wf
http://ul.to/co8ulqrd
http://ul.to/ygcngjs5
http://ul.to/2pyy0ec2
http://ul.to/ymvz20bt
http://ul.to/c9h69x5o
http://ul.to/h77t7sdh
http://ul.to/tudn8o9e
http://ul.to/nji1dhq1
http://ul.to/z53l3hmp
http://ul.to/xnmhiqj4

PUTLOCKER
Lo sentimos, este contenido está visible solamente para usuarios registrados. Click aquí para Registrarse

MEGA
Lo sentimos, este contenido está visible solamente para usuarios registrados. Click aquí para Registrarse


La Contraseña para todos los archivos es “chamako” (sin comillas y todo minusculas)

Apoyame comprando tu cuenta premium de estos servidores

Compra tu cuenta premium cada mes >>> FreakShare

Compra tu cuenta premium cada mes  >>> Uploaded

5 Comentarios

Deja un comentario

Compra premium Uploaded

uploaded

Facebook

Peliculas en 3D

Monsters Univrsity 3D

Pacific Rim 3D

Croods 3D

Star Trek 3D

Guerra Mundial Z 3D

Iron MAN 3 3D

Rip Departamento 3D

Los Pitufos 2 3 3D

Man of Steel 3 3D

Mi Villano favorito 2 3D

Aviones 3D

Turbo 2013 3D

Turbo 2013 3D

Percy Jackson 2013 3D

Gatsby 3D

Epic 3D

Gi Joe 2 3D

Hansel y Gretel 3D

Hansel y Gretel 3D

Oz 3D

The Hobbit 3D

Ilusionautas 3D

Life of Pi 3D

El Origen de los Guardianes 3D

Ralph el Demoledor 3D

Silent Hill Revelation 3D

Monster 3D

Monster 3D

Monster 3D

DREDD 3D 1080P

Brave 3D 1080P

Series en DVD

Spartacus Vengeance Season  2 DVD The Big Bang Theory Season 5 DVD Homeland Season 1 DVD Once Upon a Time Season 1 DVD The Walking Dead Season 2 DVD