Pacific Rim (2016) 2160p 4K UHD Español Latino – Ingles [MEGA]

Por Chamako / hace 2 semanas / 1 Comentario ».

Pacific-Rim-4k-Latino

Descargar Pacific Rim (2016) 4K UHD Latino Gratis Cuando legiones de monstruosas criaturas, denominadas Kaiju, comienzan a salir del mar, se inicia una guerra que acabará con millones de vidas y que consumirá los recursos de la humanidad durante interminables años. Para combatir a los Kaiju gigantes diseñan un tipo especial de arma: enormes robots, llamados Jaegers, que son controlados simultáneamente por dos pilotos cuyas mentes están bloqueadas en un puente neural. Pero incluso los Jaegers proporcionan poca defensa ante los incansables Kaiju. A punto de la derrota, las fuerzas que defienden a la humanidad no tienen otra elección que recurrir a dos insólitos héroes: un ex piloto acabado (Charlie Hunnam) y un aprendiz que todavía no se ha puesto a prueba (Rinko Kikuchi). Ambos se unen para traer a un legendario pero al parecer obsoleto Jaeger del pasado. Juntos, son la última esperanza de la humanidad frente al Apocalipsis que se avecina.

INFORMACIÓN

TÍTULO ORIGINAL: Pacific Rim
AÑO: 2013
DURACIÓN: 131 min.
País: Estados Unidos
DIRECTOR: Guillermo del Toro
GUIÓN: Travis Beacham, Guillermo del Toro (Historia: Travis Beacham)
MÚSICA: Ramin Djawadi
FOTOGRAFÍA: Guillermo Navarro
REPARTO: Charlie Hunnam, Idris Elba, Rinko Kikuchi, Charlie Day, Diego Klattenhoff, Burn Gorman, Max Martini, Robert Kazinsky, Clifton Collins Jr., Ron Perlman, Brad William Henke, Larry Joe Campbell, Mana Ashida, Santiago Segura, Joe Pingue
PRODUCTORA: Warner Bros. Pictures / Legendary Pictures
GÉNERO: Ciencia ficción. Acción | Robots. Monstruos. Extraterrestres Extraterrestres

CAPTURAS

vlcsnap-2017-08-31-14h50m20s541
vlcsnap-2017-08-31-14h46m45s580
vlcsnap-2017-08-31-14h44m57s511
vlcsnap-2017-08-31-14h33m26s233

NFO

General
Complete name : Pacific Rim (2013) 2160p 4K UHD Dual Latino-Inglés [Subt. Esp]\Pacific Rim (2013) 2160p 4K UHD Latino.mkv
Format : Matroska
Format version : Version 4 / Version 2
File size : 39.4 GiB
Duration : 2 h 11 min
Overall bit rate : 42.9 Mb/s
Movie name : Chamako.Net
Encoded date : UTC 2017-08-31 17:01:07
Writing application : mkvmerge v7.9.0 (‘Birds’) 64bit
Writing library : libebml v1.3.1 + libmatroska v1.4.2

Video
ID : 1
Format : HEVC
Format/Info : High Efficiency Video Coding
Format profile : Main@L5@High
Codec ID : V_MPEGH/ISO/HEVC
Duration : 2 h 11 min
Bit rate : 39.2 Mb/s
Width : 3 840 pixels
Height : 2 160 pixels
Display aspect ratio : 16:9
Frame rate mode : Constant
Frame rate : 23.976 (24000/1001) FPS
Color space : YUV
Chroma subsampling : 4:2:0
Bit depth : 8 bits
Bits/(Pixel*Frame) : 0.197
Stream size : 35.9 GiB (91%)
Title : Chamako.Net
Writing library : x265 2.1:[Windows][GCC 5.4.0][64 bit] 8bit
Encoding settings : wpp / ctu=64 / min-cu-size=8 / max-tu-size=32 / tu-intra-depth=1 / tu-inter-depth=1 / me=1 / subme=2 / merange=57 / no-rect / no-amp / max-merge=2 / temporal-mvp / no-early-skip / rskip / rdpenalty=0 / no-tskip / no-tskip-fast / strong-intra-smoothing / no-lossless / no-cu-lossless / no-constrained-intra / fast-intra / open-gop / no-temporal-layers / interlace=0 / keyint=240 / min-keyint=24 / scenecut=40 / rc-lookahead=15 / lookahead-slices=8 / bframes=4 / bframe-bias=0 / b-adapt=0 / ref=3 / limit-refs=3 / no-limit-modes / weightp / no-weightb / aq-mode=1 / qg-size=32 / aq-strength=1.00 / cbqpoffs=0 / crqpoffs=0 / rd=2 / psy-rd=2.00 / rdoq-level=0 / psy-rdoq=0.00 / log2-max-poc-lsb=8 / no-rd-refine / signhide / deblock=0:0 / sao / no-sao-non-deblock / b-pyramid / cutree / no-intra-refresh / rc=abr / bitrate=40000 / qcomp=0.60 / qpmin=0 / qpmax=69 / qpstep=4 / ipratio=1.40 / pbratio=1.30
Language : English
Default : Yes
Forced : No
Color range : Limited
Color primaries : BT.709
Transfer characteristics : BT.709
Matrix coefficients : BT.601

Audio #1
ID : 2
Format : AC-3
Format/Info : Audio Coding 3
Format settings, Endianness : Big
Codec ID : A_AC3
Duration : 2 h 11 min
Bit rate mode : Constant
Bit rate : 640 kb/s
Channel(s) : 6 channels
Channel positions : Front: L C R, Side: L R, LFE
Sampling rate : 48.0 kHz
Frame rate : 31.250 FPS (1536 SPF)
Bit depth : 16 bits
Compression mode : Lossy
Delay relative to video : 16 ms
Stream size : 601 MiB (1%)
Title : Latino
Language : Spanish
Service kind : Complete Main
Default : Yes
Forced : No

Audio #2
ID : 3
Format : AC-3
Format/Info : Audio Coding 3
Format settings, Endianness : Big
Codec ID : A_AC3
Duration : 2 h 11 min
Bit rate mode : Constant
Bit rate : 640 kb/s
Channel(s) : 6 channels
Channel positions : Front: L C R, Side: L R, LFE
Sampling rate : 48.0 kHz
Frame rate : 31.250 FPS (1536 SPF)
Bit depth : 16 bits
Compression mode : Lossy
Stream size : 601 MiB (1%)
Title : Ac3 5.1
Language : English
Service kind : Complete Main
Default : No
Forced : No

Audio #3
ID : 4
Format : DTS
Format/Info : Digital Theater Systems
Format profile : MA / Core
Mode : 16
Format settings, Endianness : Big
Codec ID : A_DTS
Duration : 2 h 11 min
Bit rate mode : Variable / Constant
Bit rate : 2 487 kb/s / 1 509 kb/s
Channel(s) : 6 channels
Channel positions : Front: L C R, Side: L R, LFE
Sampling rate : 48.0 kHz
Frame rate : 93.750 FPS (512 SPF)
Bit depth : 16 bits
Compression mode : Lossless / Lossy
Stream size : 2.28 GiB (6%)
Title : DTS 5.1
Language : English
Default : No
Forced : No

Text #1
ID : 5
Format : UTF-8
Codec ID : S_TEXT/UTF8
Codec ID/Info : UTF-8 Plain Text
Duration : 1 h 59 min
Bit rate : 1 b/s
Count of elements : 35
Stream size : 984 Bytes (0%)
Title : Forzados
Language : Spanish
Default : Yes
Forced : No

Text #2
ID : 6
Format : UTF-8
Codec ID : S_TEXT/UTF8
Codec ID/Info : UTF-8 Plain Text
Duration : 2 h 10 min
Bit rate : 53 b/s
Count of elements : 1660
Stream size : 51.0 KiB (0%)
Title : Completos
Language : Spanish
Default : No
Forced : No

Menu
00:00:00.000 : :Chapter 1
00:08:49.362 : :Chapter 2
00:18:16.304 : :Chapter 3
00:22:44.905 : :Chapter 4
00:32:40.834 : :Chapter 5
00:42:25.376 : :Chapter 6
00:49:42.104 : :Chapter 7
01:00:50.021 : :Chapter 8
01:14:25.628 : :Chapter 9
01:22:01.750 : :Chapter 10
01:31:50.380 : :Chapter 11
01:41:36.090 : :Chapter 12
01:51:18.338 : :Chapter 13
01:59:01.509 : :Chapter 14
02:01:58.436 : :Chapter 15

DESCARGAR

UPLOADED

http://ul.to/9k20w4fh
http://ul.to/wsjpe0et
http://ul.to/y0l0bit3
http://ul.to/8u4xpw0j
http://ul.to/686yt3cg
http://ul.to/jeshbe8x
http://ul.to/rtbxphdw
http://ul.to/lvsipkn9
http://ul.to/8bbnzrkd
http://ul.to/uxukgwgl
http://ul.to/usxoq799
http://ul.to/vtgzxzjh
http://ul.to/amutwves
http://ul.to/oaqj17dk
http://ul.to/juovw5yn
http://ul.to/1si0nl6h
http://ul.to/tdwffs3l
http://ul.to/albflsk9
http://ul.to/e40han2x
http://ul.to/t5uokhwo
http://ul.to/1djbrcdt
http://ul.to/vqy4nef7
http://ul.to/2ymj3sy0
http://ul.to/g79fgj7z
http://ul.to/2tgm195q
http://ul.to/d4ywukxj
http://ul.to/nezd597g
http://ul.to/u9gfx11z
http://ul.to/lv1jf3rw
http://ul.to/mh9m3oc5
http://ul.to/2bunp5e0
http://ul.to/f1zxypdx
http://ul.to/yy6b4foa
http://ul.to/ypsxddhy
http://ul.to/z0hce1wf
http://ul.to/523krt17
http://ul.to/oqfmthvd
http://ul.to/appgwrtr
http://ul.to/i3n01nfq
http://ul.to/r0cq9r3d
http://ul.to/ygtnsn6b
http://ul.to/qx90divm
http://ul.to/374gzpqe
http://ul.to/kcf59dzr
http://ul.to/d39gbqwb

1FICHIER

GOOGLE DRIVE – VIP

Lo sentimos, este contenido está visible solamente para usuarios registrados. Click aquí para Registrarse

MEGA – REGISTRADOS

Lo sentimos, este contenido está visible solamente para usuarios registrados. Click aquí para Registrarse

Un Comentario

Deja un comentario

Compra premium Uploaded

uploaded

Facebook

Peliculas en 3D

Monsters Univrsity 3D

Pacific Rim 3D

Croods 3D

Star Trek 3D

Guerra Mundial Z 3D

Iron MAN 3 3D

Rip Departamento 3D

Los Pitufos 2 3 3D

Man of Steel 3 3D

Mi Villano favorito 2 3D

Aviones 3D

Turbo 2013 3D

Turbo 2013 3D

Percy Jackson 2013 3D

Gatsby 3D

Epic 3D

Gi Joe 2 3D

Hansel y Gretel 3D

Hansel y Gretel 3D

Oz 3D

The Hobbit 3D

Ilusionautas 3D

Life of Pi 3D

El Origen de los Guardianes 3D

Ralph el Demoledor 3D

Silent Hill Revelation 3D

Monster 3D

Monster 3D

Monster 3D

DREDD 3D 1080P

Brave 3D 1080P

Series en DVD

Spartacus Vengeance Season  2 DVD The Big Bang Theory Season 5 DVD Homeland Season 1 DVD Once Upon a Time Season 1 DVD The Walking Dead Season 2 DVD