Percy Jackson y el mar de los monstruos (2013) [3D SBS][BDRip 1080p][Español Latino 5.1/Ingles DTS][Subs.3D]

Por Chamako / hace 4 años / 3 Comentarios ».

Resubido 06/01/14

percy Basada en el best seller Percy Jackson y el Mar de los Monstruos continua el viaje épico del joven semidios en busca de su destino. Para salvar su mundo, Percy y sus amigos deben encontrar el Vellocino de Oro. Embarcándose en una peligrosa odisea por las aguas del Mar de los Monstruos (conocido por los humanos como el Triángulo de las Bermudas) lucharán contra terribles criaturas, un ejército de zombies y el Demonio definitivo.

Título: Percy Jackson y el mar de los monstruos
Título original: Percy Jackson: Sea of Monsters
País: USA
Estreno en USA: 07/08/2013
Estreno en España: 13/09/2013
Productora: 20th Century Fox
Director: Thor Freudenthal
Guión: Scott Alexander, Larry Karaszewski
Reparto: Logan Lerman, Alexandra Daddario, Jake Abel, Brandon T. Jackson, Melina Kan, Mary Birdsong, Yvette Nicole Brown, Missi Pyle, Robert Maillet, Douglas Smith, Nathan Fillion, Zoe Aggeliki
Calificación: No recomendada para menores de 7 años
c2013-12-07-16h46m42s65.png c2013-12-07-16h54m16s5.png c2013-12-07-17h02m58s88.png c2013-12-07-16h54m24s56.png

General Unique ID : 249624651411255164773075354433461989824 (0xBBCBF587A4EA0D2B8BB759CCE534B1C0) Complete name : Percy 3D.mkv Format : Matroska Format version : Version 2 File size : 9.98 GiB Duration : 1h 46mn Overall bit rate : 13.5 Mbps Movie name : www.Chamako.Net – PerPercy Jackson y el mar de los monstruos (2013) 3D SBS 1080P Latino Encoded date : UTC 2013-12-07 21:36:10 Writing application : mkvmerge v3.4.0 (‘Rapunzel’) built on May 15 2010 09:38:20 Writing library : libebml v0.8.0 + libmatroska v0.9.0 Video ID : 1 Format : AVC Format/Info : Advanced Video Codec Format profile : High@L4.1 MultiView_Count : 2 MultiView_Layout : Right Eye Format settings, CABAC : Yes Format settings, ReFrames : 4 frames Codec ID : V_MPEG4/ISO/AVC Duration : 1h 46mn Bit rate : 11.0 Mbps Width : 1 920 pixels Height : 1 080 pixels Display aspect ratio : 16:9 Frame rate mode : Constant Frame rate : 23.976 fps Color space : YUV Chroma subsampling : 4:2:0 Bit depth : 8 bits Scan type : Progressive Bits/(Pixel*Frame) : 0.222 Stream size : 8.19 GiB (82%) Title : www.Chamako.Net – PerPercy Jackson y el mar de los monstruos (2013) Language : English Default : No Forced : No Audio #1 ID : 2 Format : AC-3 Format/Info : Audio Coding 3 Mode extension : CM (complete main) Format settings, Endianness : Big Codec ID : A_AC3 Duration : 1h 46mn Bit rate mode : Constant Bit rate : 640 Kbps Channel(s) : 6 channels Channel positions : Front: L C R, Side: L R, LFE Sampling rate : 48.0 KHz Bit depth : 16 bits Compression mode : Lossy Delay relative to video : 1s 0ms Stream size : 486 MiB (5%) Title : www.Chamako.Net – Latino 5.1 Language : Spanish Default : Yes Forced : Yes Audio #2 ID : 3 Format : DTS Format/Info : Digital Theater Systems Format profile : ES Mode : 16 Format settings, Endianness : Big Codec ID : A_DTS Duration : 1h 46mn Bit rate mode : Constant Bit rate : 1 509 Kbps Channel(s) : 6 channels Channel positions : Front: L C R, Side: L R, LFE Sampling rate : 48.0 KHz Bit depth : 24 bits Compression mode : Lossy Delay relative to video : 11ms Stream size : 1.12 GiB (11%) Title : www.Chamako.Net – English DTS Language : English Default : No Forced : No Text ID : 4 Format : VobSub Muxing mode : zlib Codec ID : S_VOBSUB Codec ID/Info : The same subtitle format used on DVDs Title : Subs. 3D Language : Spanish Default : No Forced : No Menu 00:00:00.000 : en:00:00:00.000 00:04:06.455 : en:00:04:06.455 00:06:44.070 : en:00:06:44.070 00:09:32.697 : en:00:09:32.697 00:13:54.125 : en:00:13:54.125 00:19:18.157 : en:00:19:18.157 00:20:49.039 : en:00:20:49.039 00:22:11.497 : en:00:22:11.497 00:25:31.530 : en:00:25:31.530 00:28:23.827 : en:00:28:23.827 00:30:28.535 : en:00:30:28.535 00:33:20.999 : en:00:33:20.999 00:37:02.262 : en:00:37:02.262 00:39:50.597 : en:00:39:50.597 00:45:17.381 : en:00:45:17.381 00:48:51.178 : en:00:48:51.178 00:52:43.952 : en:00:52:43.952 00:56:36.101 : en:00:56:36.101 01:00:20.867 : en:01:00:20.867 01:03:36.896 : en:01:03:36.896 01:05:41.688 : en:01:05:41.688 01:10:42.697 : en:01:10:42.697 01:12:33.182 : en:01:12:33.182 01:16:53.818 : en:01:16:53.818 01:19:40.442 : en:01:19:40.442 01:23:02.769 : en:01:23:02.769 01:25:46.808 : en:01:25:46.808 01:29:55.265 : en:01:29:55.265 01:32:48.313 : en:01:32:48.313 01:34:26.244 : en:01:34:26.244 01:36:08.972 : en:01:36:08.972 01:37:40.188 : en:01:37:40.188

FREAKSHARE

http://freakshare.com/files/18usc1y5/P3RC1SBSChamako.part01.rar.html
http://freakshare.com/files/baitzout/P3RC1SBSChamako.part01.rev.html
http://freakshare.com/files/yynypb9t/P3RC1SBSChamako.part02.rar.html
http://freakshare.com/files/stx64u1a/P3RC1SBSChamako.part02.rev.html
http://freakshare.com/files/sxn0ee28/P3RC1SBSChamako.part03.rar.html
http://freakshare.com/files/8goj6og8/P3RC1SBSChamako.part04.rar.html
http://freakshare.com/files/gokqp5ye/P3RC1SBSChamako.part05.rar.html
http://freakshare.com/files/0p6lsx1s/P3RC1SBSChamako.part06.rar.html
http://freakshare.com/files/g3sv2zhy/P3RC1SBSChamako.part07.rar.html
http://freakshare.com/files/61vn3wel/P3RC1SBSChamako.part08.rar.html
http://freakshare.com/files/qr76jxh4/P3RC1SBSChamako.part09.rar.html
http://freakshare.com/files/7zwncv2u/P3RC1SBSChamako.part10.rar.html
http://freakshare.com/files/m8h358lm/P3RC1SBSChamako.part11.rar.html
http://freakshare.com/files/iqh3ea7u/P3RC1SBSChamako.part12.rar.html
http://freakshare.com/files/ozxb0p2p/P3RC1SBSChamako.part13.rar.html
http://freakshare.com/files/1vcn3ll7/P3RC1SBSChamako.part14.rar.html
http://freakshare.com/files/v2r3jvqv/P3RC1SBSChamako.part15.rar.html
http://freakshare.com/files/dvjedebx/P3RC1SBSChamako.part16.rar.html
http://freakshare.com/files/93w2x7gy/P3RC1SBSChamako.part17.rar.html
http://freakshare.com/files/mh4j16xp/P3RC1SBSChamako.part18.rar.html
http://freakshare.com/files/zrrc8qrf/P3RC1SBSChamako.part19.rar.html
http://freakshare.com/files/1mvkiohg/P3RC1SBSChamako.part20.rar.html
http://freakshare.com/files/uhinlvra/P3RC1SBSChamako.part21.rar.html
http://freakshare.com/files/m58tketu/P3RC1SBSChamako.sfv.html

UPLOADED

http://ul.to/3jdplpy0
http://ul.to/4qbfchf5
http://ul.to/g11fthhs
http://ul.to/n7brksap
http://ul.to/32v2cuws
http://ul.to/og0um4ac
http://ul.to/y0u7mu4n
http://ul.to/4ryqfwm6
http://ul.to/a50xoi50
http://ul.to/42dj13a2
http://ul.to/a8pqhs8r
http://ul.to/9a1a3n6i
http://ul.to/5e1k29rn
http://ul.to/q7txc8oe
http://ul.to/mhjnal5x
http://ul.to/56aoiziq
http://ul.to/wxumlorx
http://ul.to/f0gt0zi4
http://ul.to/i84gh6w6
http://ul.to/5uvviyvh
http://ul.to/mkt1zx18
http://ul.to/gjk0k66j
http://ul.to/6b6735fm
http://ul.to/lh4nnwg0

PUTLOCKER Lo sentimos, este contenido está visible solamente para usuarios registrados. Click aquí para Registrarse MEGA Lo sentimos, este contenido está visible solamente para usuarios registrados. Click aquí para Registrarse


La Contraseña para todos los archivos es “chamako” (sin comillas y todo minusculas)

Apoyame comprando tu cuenta premium de estos servidores

Compra tu cuenta premium cada mes >>> FreakShare

Compra tu cuenta premium cada mes  >>> Uploaded

3 Comentarios

Deja un comentario

Compra premium Uploaded

uploaded

Facebook

Peliculas en 3D

Monsters Univrsity 3D

Pacific Rim 3D

Croods 3D

Star Trek 3D

Guerra Mundial Z 3D

Iron MAN 3 3D

Rip Departamento 3D

Los Pitufos 2 3 3D

Man of Steel 3 3D

Mi Villano favorito 2 3D

Aviones 3D

Turbo 2013 3D

Turbo 2013 3D

Percy Jackson 2013 3D

Gatsby 3D

Epic 3D

Gi Joe 2 3D

Hansel y Gretel 3D

Hansel y Gretel 3D

Oz 3D

The Hobbit 3D

Ilusionautas 3D

Life of Pi 3D

El Origen de los Guardianes 3D

Ralph el Demoledor 3D

Silent Hill Revelation 3D

Monster 3D

Monster 3D

Monster 3D

DREDD 3D 1080P

Brave 3D 1080P

Series en DVD

Spartacus Vengeance Season  2 DVD The Big Bang Theory Season 5 DVD Homeland Season 1 DVD Once Upon a Time Season 1 DVD The Walking Dead Season 2 DVD