R.I.P.D. Departamento de Policía Mortal (2013) [3D SBS][BDRip 1080p][Español Latino 5.1/Ingles DTS]

Por Chamako / hace 4 años / 8 Comentarios ».

FIlVGm

En la aventura de acción sobrenatural R.I.P.D. DEPARTAMENTO DE POLICÍA MORTAL, Jeff Bridges y Ryan Reynolds encarnan a dos policías “no-muertos” que trabajan en el Departamento de Policía Mortal ubicado en el Más Allá. Su misión es proteger a este mundo de una serie de criaturas cada vez más destructivas que se niegan a pasar tranquilamente al otro lado. El veterano sheriff Roy Pulsifer (Jeff Bridges) ha pasado toda su vida profesional en las legendarias fuerzas del orden R.I.P.D. Departamento de Policía Mortal siguiendo la pista a seres monstruosos disfrazados de personas normales. ¿Su misión? Detener y llevar ante la justicia a unos delincuentes muy especiales que intentan escaquearse del Juicio Final buscando refugio en la desprevenida Tierra. Cuando el ocurrente Roy se ve obligado a trabajar con el detective Nick Walker (Ryan Reynolds), que iba camino de convertirse en una estrella de la policía, los dos compañeros tendrán que superar sus diferencias para alcanzar el más alto nivel profesional. Al descubrir un plan para acabar con la vida en el planeta, dos de los mejores hombres del R.I.P.D deberán recuperar el equilibrio cósmico… si no quieren que el túnel del Más Allá empiece a mandar almas furiosas en la dirección equivocada.


Título: R.I.P.D. Departamento de Policía Mortal
Título original: R.I.P.D.
País: USA
Estreno en USA: 19/07/2013
Estreno en España: 20/09/2013
Productora: Universal Pictures
Director: Robert Schwentke
Guión: Matt Manfredi, Phil Hay
Reparto: Ryan Reynolds, Jeff Bridges, Kevin Bacon, Mary-Louise Parker, Stephanie Szostak, Robert Knepper, James Hong, Mike O’Malley, Marisa Miller, Devin Ratray, Larry Joe Campbell, Zoe Aggeliki, Josh Sussman, Catherine Kresge, Alexandra East
Calificación: No recomendada para menores de 12 años


c2013-10-21-10h02m16s129.png
c2013-10-21-10h04m02s126.png
c2013-10-21-10h02m48s165.png
c2013-10-21-10h04m45s51.png

General
Unique ID : 218587318169385060282294758093739836058 (0xA47262DAE51B7D7A928CC3510AB0C29A)
Complete name : R.I.P.D.3D.2013.1080p.BluRay.Half-SBS.Latino.Chamako.mkv
Format : Matroska
Format version : Version 2
File size : 8.59 GiB
Duration : 1h 35mn
Overall bit rate : 12.8 Mbps
Movie name : www.Chamako.Net – R.I.P.D 3D (2013) 3D SBS BDRip 1080p Latino
Encoded date : UTC 2013-10-21 15:43:50
Writing application : mkvmerge v3.4.0 (‘Rapunzel’) built on May 15 2010 09:38:20
Writing library : libebml v0.8.0 + libmatroska v0.9.0

Video
ID : 1
Format : AVC
Format/Info : Advanced Video Codec
Format profile : High@L4.1
MultiView_Count : 2
MultiView_Layout : Right Eye
Format settings, CABAC : Yes
Format settings, ReFrames : 4 frames
Codec ID : V_MPEG4/ISO/AVC
Duration : 1h 35mn
Bit rate : 10.7 Mbps
Width : 1 920 pixels
Height : 1 080 pixels
Display aspect ratio : 16:9
Frame rate mode : Constant
Frame rate : 23.976 fps
Color space : YUV
Chroma subsampling : 4:2:0
Bit depth : 8 bits
Scan type : Progressive
Bits/(Pixel*Frame) : 0.215
Stream size : 7.15 GiB (83%)
Title : www.Chamako.Net – R.I.P.D 3D (2013)
Language : English
Default : No
Forced : No

Audio #1
ID : 2
Format : AC-3
Format/Info : Audio Coding 3
Mode extension : CM (complete main)
Format settings, Endianness : Big
Codec ID : A_AC3
Duration : 1h 35mn
Bit rate mode : Constant
Bit rate : 384 Kbps
Channel(s) : 6 channels
Channel positions : Front: L C R, Side: L R, LFE
Sampling rate : 48.0 KHz
Bit depth : 16 bits
Compression mode : Lossy
Stream size : 264 MiB (3%)
Title : www.Chamako.Net – Latino 5.1
Language : Spanish
Default : Yes
Forced : No

Audio #2
ID : 3
Format : DTS
Format/Info : Digital Theater Systems
Mode : 16
Format settings, Endianness : Big
Codec ID : A_DTS
Duration : 1h 35mn
Bit rate mode : Constant
Bit rate : 1 509 Kbps
Channel(s) : 6 channels
Channel positions : Front: L C R, Side: L R, LFE
Sampling rate : 48.0 KHz
Bit depth : 24 bits
Compression mode : Lossy
Delay relative to video : 11ms
Stream size : 1.01 GiB (12%)
Title : www.Chamako.Net – English
Language : English
Default : No
Forced : No

Text #1
ID : 4
Format : ASS
Codec ID : S_TEXT/ASS
Codec ID/Info : Advanced Sub Station Alpha
Compression mode : Lossless
Title : www.Chamako.Net – Spanish Completos
Language : Spanish
Default : No
Forced : No

Text #2
ID : 5
Format : ASS
Codec ID : S_TEXT/ASS
Codec ID/Info : Advanced Sub Station Alpha
Compression mode : Lossless
Title : www.Chamako.Net – Spanish Forzados
Language : Spanish
Default : No
Forced : Yes

Menu
00:00:00.000 : en:00:00:00.000
00:03:57.112 : en:00:03:57.112
00:09:13.136 : en:00:09:13.136
00:14:30.578 : en:00:14:30.578
00:17:58.411 : en:00:17:58.411
00:22:30.599 : en:00:22:30.599
00:27:09.503 : en:00:27:09.503
00:33:33.511 : en:00:33:33.511
00:38:46.157 : en:00:38:46.157
00:43:27.647 : en:00:43:27.647
00:46:31.747 : en:00:46:31.747
00:52:04.038 : en:00:52:04.038
00:55:52.099 : en:00:55:52.099
01:02:15.982 : en:01:02:15.982
01:07:01.100 : en:01:07:01.100
01:10:35.690 : en:01:10:35.690
01:13:16.309 : en:01:13:16.309
01:17:52.126 : en:01:17:52.126
01:23:00.934 : en:01:23:00.934
01:27:27.909 : en:01:27:27.909

FREAKSHARE

http://freakshare.com/files/2i415jvs/RH3F32Chamako.part01.rar.html
http://freakshare.com/files/oprfi44r/RH3F32Chamako.part01.rev.html
http://freakshare.com/files/b8k5h6sy/RH3F32Chamako.part02.rar.html
http://freakshare.com/files/13pzz6m8/RH3F32Chamako.part02.rev.html
http://freakshare.com/files/4o9njdct/RH3F32Chamako.part03.rar.html
http://freakshare.com/files/ogusz70y/RH3F32Chamako.part04.rar.html
http://freakshare.com/files/d9emrtmr/RH3F32Chamako.part05.rar.html
http://freakshare.com/files/7rchdgcd/RH3F32Chamako.part06.rar.html
http://freakshare.com/files/plqp1rle/RH3F32Chamako.part07.rar.html
http://freakshare.com/files/t3vci3t4/RH3F32Chamako.part08.rar.html
http://freakshare.com/files/gp59v5ui/RH3F32Chamako.part09.rar.html
http://freakshare.com/files/g9sl3i21/RH3F32Chamako.part10.rar.html
http://freakshare.com/files/m5zkqan8/RH3F32Chamako.part11.rar.html
http://freakshare.com/files/4j5shjm6/RH3F32Chamako.part12.rar.html
http://freakshare.com/files/hhd1yvub/RH3F32Chamako.part13.rar.html
http://freakshare.com/files/mto9ncxo/RH3F32Chamako.part14.rar.html
http://freakshare.com/files/apzpwpfg/RH3F32Chamako.part15.rar.html
http://freakshare.com/files/7xub7vx7/RH3F32Chamako.part16.rar.html
http://freakshare.com/files/w8o8g38y/RH3F32Chamako.part17.rar.html
http://freakshare.com/files/j9q2wyey/RH3F32Chamako.part18.rar.html

UPLOADED

http://ul.to/80ux1r2p
http://ul.to/ik7usu5p
http://ul.to/x31jstgw
http://ul.to/sq4hr3ef
http://ul.to/h5uvaokt
http://ul.to/dmvhll77
http://ul.to/h3cijrv9
http://ul.to/qdwkdggi
http://ul.to/yduusn2w
http://ul.to/bv3tymd8
http://ul.to/mtl2vt6f
http://ul.to/fxpe3zy8
http://ul.to/k16v4kvx
http://ul.to/ndj215l8
http://ul.to/1ht7hayc
http://ul.to/dng0ke47
http://ul.to/qg8phkmx
http://ul.to/036c6xhn
http://ul.to/idqb1gpx
http://ul.to/xg1vclql

PUTLOCKER
Lo sentimos, este contenido está visible solamente para usuarios registrados. Click aquí para Registrarse
MEGA
Lo sentimos, este contenido está visible solamente para usuarios registrados. Click aquí para Registrarse

SAMPLE


La Contraseña para todos los archivos es “chamako” (sin comillas y todo minusculas)

Apoyame comprando tu cuenta premium de estos servidores

Compra tu cuenta premium cada mes >>> FreakShare

Compra tu cuenta premium cada mes  >>> Uploaded

8 Comentarios

Deja un comentario

Compra premium Uploaded

uploaded

Facebook

Peliculas en 3D

Monsters Univrsity 3D

Pacific Rim 3D

Croods 3D

Star Trek 3D

Guerra Mundial Z 3D

Iron MAN 3 3D

Rip Departamento 3D

Los Pitufos 2 3 3D

Man of Steel 3 3D

Mi Villano favorito 2 3D

Aviones 3D

Turbo 2013 3D

Turbo 2013 3D

Percy Jackson 2013 3D

Gatsby 3D

Epic 3D

Gi Joe 2 3D

Hansel y Gretel 3D

Hansel y Gretel 3D

Oz 3D

The Hobbit 3D

Ilusionautas 3D

Life of Pi 3D

El Origen de los Guardianes 3D

Ralph el Demoledor 3D

Silent Hill Revelation 3D

Monster 3D

Monster 3D

Monster 3D

DREDD 3D 1080P

Brave 3D 1080P

Series en DVD

Spartacus Vengeance Season  2 DVD The Big Bang Theory Season 5 DVD Homeland Season 1 DVD Once Upon a Time Season 1 DVD The Walking Dead Season 2 DVD