Ralph el Demoledor (2012) [3D SBS][BDRip 1080p][Español Latino 5.1/Ingles DTS]

Por Chamako / hace 4 años / 7 Comentarios ».

Ralph el Demoledor anhela ser amado y respetado como suele pasar con, Felix el Reparador, el chico bueno del videojuego al que pertenece. El problema es que nadie quiere a los villanos y por eso Ralph sale de su juego y se aventura en un moderno reto que lo podría coronar como el héroe que quiere ser. Sin embargo, todo sale mal para Ralph y, aunque consigue ganar su valiosa medalla, provoca un accidente que podría terminar con todos los juegos de video. Con la ayuda de un curiosa pequeñita, Ralph tendrá que arreglar todos los problemas antes de que sea demasiado tarde


TÍTULO ORIGINAL: Wreck-It Ralph
OTROS TÍTULOS: ¡Rompe Ralph! / Ralph el Demoledor
AÑO: 2012
DURACIÓN: 101 min.
PAÍS: USA
DIRECTOR: Rich Moore
GUIÓN: Phil Johnston
MÚSICA: Henry Jackman
FOTOGRAFÍA: Animation
REPARTO: Animation
PRODUCTORA: Walt Disney Animation Studios
PREMIOS 2012: Oscar: Nominada a Mejor película de animación
2012: 5 Premios Annie, incluyendo Mejor película. 10 nominaciones
2012: Critics Choice Awards: Mejor película de animación
2012: Globos de Oro: Nominada a Mejor película de animación
2012: Satellite Awards: Nominado a Mejor largometraje de animación
2012: National Board of Review (NBR): Mejor largometraje de animación
2012: Producers Guild of America (PGA): Mejor película de animación
GÉNERO: Animación. Fantástico. Comedia | Videojuego. 3-D
FECHA DE ESTRENO MÉXICO: 2 de noviembre de 2012
FECHA DE ESTRENO USA: 2 de noviembre de 2012
FECHA DE ESTRENO ESPAÑA: 25 de diciembre de 2012


c2013-02-16-22h59m42s47.png
c2013-02-16-22h59m53s138.png
c2013-02-16-23h00m32s17.png

General
Unique ID :
Complete name : P3d-ralsbs1080p.latino.mkv
Format : Matroska
Format version : Version 2
File size : 11.4 GiB
Duration : 1h 41mn
Overall bit rate : 16.1 Mbps
Movie name : wWw.Chamako.net – Ralph El Demoledor 2012 3D SBS 1080P Latino
Encoded date : UTC 2013-02-17 01:44:27
Writing application : mkvmerge v3.4.0 (‘Rapunzel’) built on May 15 2010 09:38:20
Writing library : libebml v0.8.0 + libmatroska v0.9.0

Video
ID : 1
Format : AVC
Format/Info : Advanced Video Codec
Format profile : High@L4.1
Format settings, CABAC : Yes
Format settings, ReFrames : 2 frames
Codec ID : V_MPEG4/ISO/AVC
Duration : 1h 41mn
Bit rate : 13.6 Mbps
Width : 1 920 pixels
Height : 1 080 pixels
Display aspect ratio : 16:9
Frame rate mode : Constant
Frame rate : 23.976 fps
Color space : YUV
Chroma subsampling : 4:2:0
Bit depth : 8 bits
Scan type : Progressive
Bits/(Pixel*Frame) : 0.274
Stream size : 9.62 GiB (85%)
Title : wWw.Chamako.net – Ralph El Demoledor 2012 3D SBS
Writing library : x264 core
Language : English
Default : No
Forced : No
Color primaries : BT.709
Transfer characteristics : BT.709
Matrix coefficients : BT.709

Audio #1
ID : 2
Format : AC-3
Format/Info : Audio Coding 3
Mode extension : CM (complete main)
Format settings, Endianness : Big
Codec ID : A_AC3
Duration : 1h 41mn
Bit rate mode : Constant
Bit rate : 640 Kbps
Channel(s) : 6 channels
Channel positions : Front: L C R, Side: L R, LFE
Sampling rate : 48.0 KHz
Bit depth : 16 bits
Compression mode : Lossy
Stream size : 463 MiB (4%)
Title : wWw.Chamako.net – Latino 5.1
Default : Yes
Forced : No

Audio #2
ID : 3
Format : DTS
Format/Info : Digital Theater Systems
Mode : 16
Format settings, Endianness : Big
Codec ID : A_DTS
Duration : 1h 41mn
Bit rate mode : Constant
Bit rate : 1 509 Kbps
Channel(s) : 6 channels
Channel positions : Front: L C R, Side: L R, LFE
Sampling rate : 48.0 KHz
Bit depth : 24 bits
Compression mode : Lossy
Delay relative to video : 11ms
Stream size : 1.07 GiB (9%)
Title : wWw.Chamako.net – English DTS
Language : English
Default : No
Forced : No

Text #1
ID : 4
Format : UTF-8
Codec ID : S_TEXT/UTF8
Codec ID/Info : UTF-8 Plain Text
Title : Spanish
Language : Spanish
Default : No
Forced : No

Text #2
ID : 5
Format : ASS
Codec ID : S_TEXT/ASS
Codec ID/Info : Advanced Sub Station Alpha
Compression mode : Lossless
Default : Yes
Forced : Yes

Menu
00:00:00.000 : en:00:00:00.000
00:07:12.140 : en:00:07:12.140
00:16:34.910 : en:00:16:34.910
00:27:07.501 : en:00:27:07.501
00:37:25.952 : en:00:37:25.952
00:44:46.684 : en:00:44:46.684
00:48:45.130 : en:00:48:45.130
00:51:36.009 : en:00:51:36.009
00:58:56.032 : en:00:58:56.032
01:09:07.893 : en:01:09:07.893
01:13:39.623 : en:01:13:39.623
01:15:56.802 : en:01:15:56.802
01:18:52.978 : en:01:18:52.978
01:21:53.742 : en:01:21:53.742
01:27:25.365 : en:01:27:25.365
01:33:10.543 : en:01:33:10.543

FREAKSHARE

http://freakshare.com/files/jw6v5nkk/p3dsb3323chamako.part01.rar.html
http://freakshare.com/files/z7ucrz5c/p3dsb3323chamako.part01.rev.html
http://freakshare.com/files/g8ydi768/p3dsb3323chamako.part02.rar.html
http://freakshare.com/files/2m9a174k/p3dsb3323chamako.part02.rev.html
http://freakshare.com/files/bhezg7y6/p3dsb3323chamako.part03.rar.html
http://freakshare.com/files/1js5g5pr/p3dsb3323chamako.part04.rar.html
http://freakshare.com/files/emin3k7i/p3dsb3323chamako.part05.rar.html
http://freakshare.com/files/qxw4vcta/p3dsb3323chamako.part06.rar.html
http://freakshare.com/files/j7z46y1b/p3dsb3323chamako.part07.rar.html
http://freakshare.com/files/2843cx8s/p3dsb3323chamako.part08.rar.html
http://freakshare.com/files/wck8u9vm/p3dsb3323chamako.part09.rar.html
http://freakshare.com/files/671dnj29/p3dsb3323chamako.part10.rar.html
http://freakshare.com/files/y2vx800o/p3dsb3323chamako.part11.rar.html
http://freakshare.com/files/7wjl9ped/p3dsb3323chamako.part12.rar.html
http://freakshare.com/files/ba142bdf/p3dsb3323chamako.part13.rar.html
http://freakshare.com/files/x1j59ken/p3dsb3323chamako.part14.rar.html
http://freakshare.com/files/zb5udh7a/p3dsb3323chamako.part15.rar.html
http://freakshare.com/files/mpm7tw7y/p3dsb3323chamako.part16.rar.html
http://freakshare.com/files/n6drne2b/p3dsb3323chamako.part17.rar.html
http://freakshare.com/files/sgvzufbt/p3dsb3323chamako.part18.rar.html
http://freakshare.com/files/fcs1tw55/p3dsb3323chamako.part19.rar.html
http://freakshare.com/files/khf05tuf/p3dsb3323chamako.part20.rar.html
http://freakshare.com/files/xmai14pt/p3dsb3323chamako.part21.rar.html
http://freakshare.com/files/dh01p8i3/p3dsb3323chamako.part22.rar.html
http://freakshare.com/files/876fgts6/p3dsb3323chamako.part23.rar.html
http://freakshare.com/files/77wjhq7f/p3dsb3323chamako.part24.rar.html

UPLOADED

http://ul.to/oaaw2syd
http://ul.to/qkw597s9
http://ul.to/qnnuq6v8
http://ul.to/49mnjkw8
http://ul.to/w9me0eg4
http://ul.to/ogbi2ws1
http://ul.to/i28q8p3f
http://ul.to/tpet8yso
http://ul.to/g7gtdysf
http://ul.to/5n5by4zm
http://ul.to/vnh5ql4n
http://ul.to/lexvjb23
http://ul.to/ms8r4d6e
http://ul.to/fhlgoig8
http://ul.to/bxkadyhy
http://ul.to/rtvqh8wy
http://ul.to/i1fknchx
http://ul.to/z7vlriof
http://ul.to/ufzwqodg
http://ul.to/shzuyxu9
http://ul.to/7773ayy5
http://ul.to/a96jbpwb
http://ul.to/03q8ri3y
http://ul.to/3nbet1le
http://ul.to/t2g6ky7c
http://ul.to/j0hgbnvz

PUTLOCKER
Lo sentimos, este contenido está visible solamente para usuarios registrados. Click aquí para Registrarse


La Contraseña para todos los archivos es “chamako” (sin comillas y todo minusculas)

Apoyame comprando tu cuenta premium de estos servidores

Compra tu cuenta premium cada mes >>> FreakShare

Compra tu cuenta premium cada mes  >>> Uploaded

7 Comentarios

Deja un comentario

Compra premium Uploaded

uploaded

Facebook

Peliculas en 3D

Monsters Univrsity 3D

Pacific Rim 3D

Croods 3D

Star Trek 3D

Guerra Mundial Z 3D

Iron MAN 3 3D

Rip Departamento 3D

Los Pitufos 2 3 3D

Man of Steel 3 3D

Mi Villano favorito 2 3D

Aviones 3D

Turbo 2013 3D

Turbo 2013 3D

Percy Jackson 2013 3D

Gatsby 3D

Epic 3D

Gi Joe 2 3D

Hansel y Gretel 3D

Hansel y Gretel 3D

Oz 3D

The Hobbit 3D

Ilusionautas 3D

Life of Pi 3D

El Origen de los Guardianes 3D

Ralph el Demoledor 3D

Silent Hill Revelation 3D

Monster 3D

Monster 3D

Monster 3D

DREDD 3D 1080P

Brave 3D 1080P

Series en DVD

Spartacus Vengeance Season  2 DVD The Big Bang Theory Season 5 DVD Homeland Season 1 DVD Once Upon a Time Season 1 DVD The Walking Dead Season 2 DVD