Silent Hill 2: Revelación (2012) [3D SBS][BDRip 1080p][Español Latino/Ingles]

Por Chamako / hace 4 años / 4 Comentarios ».

Heather Mason, una adolescente y su padre Harry Mason, han estado evadiendo la fuerza de una naturaleza que no reconocen completamente. En vísperas del cumpleaños número 18 de la chica, su padre desaparece misteriosamente y poco después, Heather se da cuenta de que su identidad es falsa y que los orígenes de su vida provienen de un lugar llamado Silent Hill. Como resultado de esta revelación, ella es atraída por esa ciudad gracias a un accidente dirigido por una misteriosa mujer y un demente. Sin embargo, Heather no sabe que está a punto de entrar a una trampa mortal.


TÍTULO ORIGINAL: Silent Hill: Revelation 3D (Silent Hill 2)
OTROS TÍTULOS: Silent Hill 2: Revelación 3D / Terror en Silent Hill 2: La Revelación
AÑO: 2012
DURACIÓN: 94 min.
PAÍS: USA
DIRECTOR: Michael J. Bassett
GUIÓN: Michael J. Bassett
MÚSICA: Jeff Danna, Akira Yamaoka
FOTOGRAFÍA: Maxime Alexandre
REPARTO: Adelaide Clemens, Kit Harington, Sean Bean, Carrie-Anne Moss, Malcolm McDowell, Radha Mitchell, Deborah Kara Unger, Martin Donovan, Heather Marks, James Collins
PRODUCTORA: Coproducción Francia-EEUU; Davis-Films / Sony Pictures / Sony / KONAMI
GÉNERO: Terror. Fantástico | Sobrenatural. Monstruos. Videojuego. 3-D
FECHA DE ESTRENO MÉXICO: 26 de octubre de 2012
FECHA DE ESTRENO USA: 26 de octubre de 2012


c2013-02-13-06h26m04s80.png
c2013-02-13-06h28m33s47.png
c2013-02-13-06h33m47s31.png
c2013-02-13-06h34m08s59.png

General
Unique ID : 206938026336987140901174103178691413277 (0x9BAED06C7E5798D49FC2BBD7C59F051D)
Complete name : Silent Hill Revelation 3D SBS 1080P Latino By Chamako.mkv
Format : Matroska
Format version : Version 2
File size : 10.0 GiB
Duration : 1h 34mn
Overall bit rate : 15.2 Mbps
Movie name : wWw.Chamako.Net – Silent Hill 2012 3D SBS 1080P Español Latino
Encoded date : UTC 2013-02-13 15:39:59
Writing application : mkvmerge v3.4.0 (‘Rapunzel’) built on May 15 2010 09:38:20
Writing library : libebml v0.8.0 + libmatroska v0.9.0

Video
ID : 1
Format : AVC
Format/Info : Advanced Video Codec
Format profile : High@L4.1
Format settings, CABAC : Yes
Format settings, ReFrames : 2 frames
Codec ID : V_MPEG4/ISO/AVC
Duration : 1h 34mn
Bit rate : 13.2 Mbps
Width : 1 920 pixels
Height : 1 080 pixels
Display aspect ratio : 16:9
Frame rate mode : Constant
Frame rate : 23.976 fps
Color space : YUV
Chroma subsampling : 4:2:0
Bit depth : 8 bits
Scan type : Progressive
Bits/(Pixel*Frame) : 0.265
Stream size : 8.71 GiB (87%)
Title : Chamako – Silent Hill 3D 2012
Writing library : x264 core
Language : English
Default : No
Forced : No
Color primaries : BT.709
Transfer characteristics : BT.709
Matrix coefficients : BT.709

Audio #1
ID : 2
Format : AC-3
Format/Info : Audio Coding 3
Mode extension : CM (complete main)
Format settings, Endianness : Big
Codec ID : A_AC3
Duration : 1h 34mn
Bit rate mode : Constant
Bit rate : 192 Kbps
Channel(s) : 2 channels
Channel positions : Front: L R
Sampling rate : 48.0 KHz
Bit depth : 16 bits
Compression mode : Lossy
Delay relative to video : 9s 200ms
Stream size : 130 MiB (1%)
Title : Chamako – Latino 5.1
Language : Spanish
Default : Yes
Forced : Yes

Audio #2
ID : 3
Format : DTS
Format/Info : Digital Theater Systems
Mode : 16
Format settings, Endianness : Big
Codec ID : A_DTS
Duration : 1h 34mn
Bit rate mode : Constant
Bit rate : 1 509 Kbps
Channel(s) : 6 channels
Channel positions : Front: L C R, Side: L R, LFE
Sampling rate : 48.0 KHz
Bit depth : 24 bits
Compression mode : Lossy
Delay relative to video : 11ms
Stream size : 1 022 MiB (10%)
Title : Chamako – English DTS
Language : English
Default : No
Forced : No

Text
ID : 4
Format : UTF-8
Codec ID : S_TEXT/UTF8
Codec ID/Info : UTF-8 Plain Text
Title : Chamako – Spanish
Language : Spanish
Default : No
Forced : No

Menu
00:00:00.000 : en:00:00:00.000
00:04:40.489 : en:00:04:40.489
00:11:37.530 : en:00:11:37.530
00:17:08.611 : en:00:17:08.611
00:21:28.496 : en:00:21:28.496
00:24:03.484 : en:00:24:03.484
00:27:58.927 : en:00:27:58.927
00:31:27.010 : en:00:31:27.010
00:35:23.079 : en:00:35:23.079
00:40:49.113 : en:00:40:49.113
00:46:49.473 : en:00:46:49.473
00:50:34.281 : en:00:50:34.281
00:53:55.023 : en:00:53:55.023
00:57:46.672 : en:00:57:46.672
01:03:51.828 : en:01:03:51.828
01:06:29.444 : en:01:06:29.444
01:11:28.284 : en:01:11:28.284
01:16:34.298 : en:01:16:34.298
01:22:59.099 : en:01:22:59.099
01:27:20.068 : en:01:27:20.068

SAMPLE

FREAKSHARE

http://freakshare.com/files/l9ut6m5t/F23J9FH3CHamako.part01.rar.html
http://freakshare.com/files/htnchn3c/F23J9FH3CHamako.part01.rev.html
http://freakshare.com/files/7vxefi6t/F23J9FH3CHamako.part02.rar.html
http://freakshare.com/files/3ddk7q1s/F23J9FH3CHamako.part02.rev.html
http://freakshare.com/files/sxmcbmzz/F23J9FH3CHamako.part03.rar.html
http://freakshare.com/files/laysqebc/F23J9FH3CHamako.part04.rar.html
http://freakshare.com/files/vxeoyln8/F23J9FH3CHamako.part05.rar.html
http://freakshare.com/files/v7fpt1w8/F23J9FH3CHamako.part06.rar.html
http://freakshare.com/files/qeilctng/F23J9FH3CHamako.part07.rar.html
http://freakshare.com/files/xtqa6bvb/F23J9FH3CHamako.part08.rar.html
http://freakshare.com/files/4hcqecb1/F23J9FH3CHamako.part09.rar.html
http://freakshare.com/files/2sdnyake/F23J9FH3CHamako.part10.rar.html
http://freakshare.com/files/kd2raeev/F23J9FH3CHamako.part11.rar.html
http://freakshare.com/files/vfuktqlr/F23J9FH3CHamako.part12.rar.html
http://freakshare.com/files/nmqzf19y/F23J9FH3CHamako.part13.rar.html
http://freakshare.com/files/qmd62cmq/F23J9FH3CHamako.part14.rar.html
http://freakshare.com/files/n9owpoab/F23J9FH3CHamako.part15.rar.html
http://freakshare.com/files/v6apetqp/F23J9FH3CHamako.part16.rar.html
http://freakshare.com/files/qkdq6ssz/F23J9FH3CHamako.part17.rar.html
http://freakshare.com/files/b63f9rzm/F23J9FH3CHamako.part18.rar.html
http://freakshare.com/files/4nqohvqq/F23J9FH3CHamako.part19.rar.html
http://freakshare.com/files/wm9uhvy8/F23J9FH3CHamako.part20.rar.html
http://freakshare.com/files/mfq2bi0a/F23J9FH3CHamako.part21.rar.html

UPLOADED

http://ul.to/qtruoduv
http://ul.to/bc0q5pey
http://ul.to/0bb4vsxp
http://ul.to/fx9krdto
http://ul.to/e0g7p8oo
http://ul.to/0dldt9ku
http://ul.to/lz034bms
http://ul.to/hdcc5dy5
http://ul.to/hnyd6e56
http://ul.to/honctur6
http://ul.to/ucgfmwtu
http://ul.to/spz3r31o
http://ul.to/xs4liqn6
http://ul.to/tfktcuzb
http://ul.to/u7lqovxv
http://ul.to/gwttbyn5
http://ul.to/fmh3hi0y
http://ul.to/mcy50090
http://ul.to/tv1bn1nx
http://ul.to/yv7kvk6d
http://ul.to/szdxjjhd
http://ul.to/ntuko9g5
http://ul.to/oalyit6j

PUTLOCKER
Lo sentimos, este contenido está visible solamente para usuarios registrados. Click aquí para Registrarse


La Contraseña para todos los archivos es “chamako” (sin comillas y todo minusculas)

Apoyame comprando tu cuenta premium de estos servidores

Compra tu cuenta premium cada mes >>> FreakShare

Compra tu cuenta premium cada mes  >>> Uploaded

4 Comentarios

Deja un comentario

Compra premium Uploaded

uploaded

Facebook

Peliculas en 3D

Monsters Univrsity 3D

Pacific Rim 3D

Croods 3D

Star Trek 3D

Guerra Mundial Z 3D

Iron MAN 3 3D

Rip Departamento 3D

Los Pitufos 2 3 3D

Man of Steel 3 3D

Mi Villano favorito 2 3D

Aviones 3D

Turbo 2013 3D

Turbo 2013 3D

Percy Jackson 2013 3D

Gatsby 3D

Epic 3D

Gi Joe 2 3D

Hansel y Gretel 3D

Hansel y Gretel 3D

Oz 3D

The Hobbit 3D

Ilusionautas 3D

Life of Pi 3D

El Origen de los Guardianes 3D

Ralph el Demoledor 3D

Silent Hill Revelation 3D

Monster 3D

Monster 3D

Monster 3D

DREDD 3D 1080P

Brave 3D 1080P

Series en DVD

Spartacus Vengeance Season  2 DVD The Big Bang Theory Season 5 DVD Homeland Season 1 DVD Once Upon a Time Season 1 DVD The Walking Dead Season 2 DVD