Star Trek: En la oscuridad (2013) [3D SBS][BDRip 1080p][Español Latino 5.1/Ingles DTS][Sub.Español 3D]

Por Chamako / hace 3 años / 9 Comentarios ».

Star Trek

Cuando a la tripulación de la nave Enterprise le ordenan que regrese a casa, descubren una imparable y terrorífica fuerza que, desde dentro de su organización, ha hecho saltar por los aires la flota y todo lo que esta representa, sumiendo al mundo en una profunda crisis.
Con un asunto personal que resolver, el capitán Kirk encabeza una incursión a un planeta en guerra para capturar a un hombre que es un arma de destrucción masiva.
A medida que nuestros héroes se van sumergiendo en una épica partida de ajedrez a vida o muerte, el amor se verá puesto a prueba, las amistades se romperán, y habrá que hacer ciertos sacrificios por la única familia que le queda a Kirk: su tripulación.


Título: Star Trek: En la oscuridad
Título original: Star Trek Into Darkness
País: USA
Estreno en USA: 16/05/2013
Estreno en España: 05/07/2013
Productora: Bad Robot, Skydance Productions, Paramount Pictures
Director: J.J. Abrams
Guión: Alex Kurtzman, Roberto Orci, Damon Lindelof
Reparto: Zoe Saldana, Chris Pine, Zachary Quinto, Simon Pegg, John Cho, Karl Urban, Anton Yelchin, Benedict Cumberbatch, Alice Eve, Peter Weller, Bruce Greenwood, Elly Kaye, Noel Clarke, Nazneen Contractor, Tom Archdeacon
Calificación: No recomendada para menores de 12 años





General
Complete name : Star 3.mkv
Format : Matroska
Format version : Version 2
File size : 12.9 GiB
Duration : 2h 12mn
Overall bit rate : 13.9 Mbps
Movie name : www.Chamako.Net – Star Trek Into Darkness (2013) 3DSBS BDRip 1080p Latino 5.1
Encoded date : UTC 2013-09-10 05:26:35
Writing application : mkvmerge v3.4.0 (‘Rapunzel’) built on May 15 2010 09:38:20
Writing library : libebml v0.8.0 + libmatroska v0.9.0

Video
ID : 1
Format : AVC
Format/Info : Advanced Video Codec
Format profile : High@L4.1
Format settings, CABAC : Yes
Format settings, ReFrames : 2 frames
Format settings, GOP : M=3, N=24
Codec ID : V_MPEG4/ISO/AVC
Duration : 2h 12mn
Bit rate : 11.5 Mbps
Width : 1 920 pixels
Height : 1 080 pixels
Display aspect ratio : 16:9
Frame rate mode : Constant
Frame rate : 23.976 fps
Color space : YUV
Chroma subsampling : 4:2:0
Bit depth : 8 bits
Scan type : Progressive
Bits/(Pixel*Frame) : 0.231
Stream size : 10.6 GiB (83%)
Title : www.Chamako.Net – Star Trek 2013
Writing library : x264 core
Language : English
Default : No
Forced : No
Color primaries : BT.709
Transfer characteristics : BT.709
Matrix coefficients : BT.709

Audio #1
ID : 2
Format : AC-3
Format/Info : Audio Coding 3
Mode extension : CM (complete main)
Format settings, Endianness : Big
Codec ID : A_AC3
Duration : 2h 12mn
Bit rate mode : Constant
Bit rate : 640 Kbps
Channel(s) : 6 channels
Channel positions : Front: L C R, Side: L R, LFE
Sampling rate : 48.0 KHz
Bit depth : 16 bits
Compression mode : Lossy
Stream size : 605 MiB (5%)
Title : www.Chamako.Net – Audio Latino 5.1
Language : Spanish
Default : Yes
Forced : Yes

Audio #2
ID : 3
Format : DTS
Format/Info : Digital Theater Systems
Mode : 16
Format settings, Endianness : Big
Codec ID : A_DTS
Duration : 2h 12mn
Bit rate mode : Constant
Bit rate : 1 510 Kbps
Channel(s) : 6 channels
Channel positions : Front: L C R, Side: L R, LFE
Sampling rate : 48.0 KHz
Bit depth : 24 bits
Compression mode : Lossy
Delay relative to video : 11ms
Stream size : 1.39 GiB (11%)
Title : www.Chamako.Net – English DTS 5.1
Language : English
Default : No
Forced : No

Text
ID : 4
Format : ASS
Codec ID : S_TEXT/ASS
Codec ID/Info : Advanced Sub Station Alpha
Compression mode : Lossless
Title : www.Chamako.Net – Spanish 3D
Language : Spanish
Default : No
Forced : No

Menu
00:00:00.000 : en:00:00:00.000
00:10:20.370 : en:00:10:20.370
00:19:21.494 : en:00:19:21.494
00:30:03.969 : en:00:30:03.969
00:40:09.115 : en:00:40:09.115
00:46:05.262 : en:00:46:05.262
00:56:38.228 : en:00:56:38.228
01:06:35.783 : en:01:06:35.783
01:12:55.663 : en:01:12:55.663
01:22:45.752 : en:01:22:45.752
01:30:54.741 : en:01:30:54.741
01:38:36.369 : en:01:38:36.369
01:47:09.548 : en:01:47:09.548
01:54:17.142 : en:01:54:17.142
01:59:20.653 : en:01:59:20.653
02:03:18.308 : en:02:03:18.308

FREAKSHARE

http://freakshare.com/files/wha7gocf/ST4RK3DChamako.part01.rar.html
http://freakshare.com/files/phyz71ft/ST4RK3DChamako.part01.rev.html
http://freakshare.com/files/j40x08o7/ST4RK3DChamako.part02.rar.html
http://freakshare.com/files/9pdk971o/ST4RK3DChamako.part02.rev.html
http://freakshare.com/files/0btrbejh/ST4RK3DChamako.part03.rar.html
http://freakshare.com/files/c81tgp1i/ST4RK3DChamako.part04.rar.html
http://freakshare.com/files/93hqe2fv/ST4RK3DChamako.part05.rar.html
http://freakshare.com/files/wzzk7lis/ST4RK3DChamako.part06.rar.html
http://freakshare.com/files/l8dheu1i/ST4RK3DChamako.part07.rar.html
http://freakshare.com/files/tyrnyawq/ST4RK3DChamako.part08.rar.html
http://freakshare.com/files/hs750coz/ST4RK3DChamako.part09.rar.html
http://freakshare.com/files/ukh1wjtu/ST4RK3DChamako.part10.rar.html
http://freakshare.com/files/m3af0u0p/ST4RK3DChamako.part11.rar.html
http://freakshare.com/files/nk5gn1l9/ST4RK3DChamako.part12.rar.html
http://freakshare.com/files/9amqi2nw/ST4RK3DChamako.part13.rar.html
http://freakshare.com/files/nyfa4j39/ST4RK3DChamako.part14.rar.html
http://freakshare.com/files/n4ovn2gn/ST4RK3DChamako.part15.rar.html
http://freakshare.com/files/w25ks24j/ST4RK3DChamako.part16.rar.html
http://freakshare.com/files/id2chlf1/ST4RK3DChamako.part17.rar.html
http://freakshare.com/files/ebv19j9i/ST4RK3DChamako.part18.rar.html
http://freakshare.com/files/xo39d0vc/ST4RK3DChamako.part19.rar.html
http://freakshare.com/files/yvmkauwh/ST4RK3DChamako.part20.rar.html
http://freakshare.com/files/sambknfd/ST4RK3DChamako.part21.rar.html
http://freakshare.com/files/qbfy6h59/ST4RK3DChamako.part22.rar.html
http://freakshare.com/files/826ylf6n/ST4RK3DChamako.part23.rar.html
http://freakshare.com/files/pvuo3lwv/ST4RK3DChamako.part24.rar.html
http://freakshare.com/files/jlx54l5j/ST4RK3DChamako.part25.rar.html
http://freakshare.com/files/gfr3wb7k/ST4RK3DChamako.part26.rar.html
http://freakshare.com/files/5k0o29ay/ST4RK3DChamako.part27.rar.html

UPLOADED

http://ul.to/hzhk4iq6
http://ul.to/76ps6ci1
http://ul.to/8qimnqy5
http://ul.to/4qxo14dd
http://ul.to/xgrhl5rz
http://ul.to/2zkob0er
http://ul.to/ubyb43ls
http://ul.to/mrre8yo0
http://ul.to/94n8n67r
http://ul.to/wss5jebd
http://ul.to/ggtdf717
http://ul.to/mifpbixv
http://ul.to/gsb2pyu4
http://ul.to/mt4ftqlc
http://ul.to/n4d1qaey
http://ul.to/cvuxaq0e
http://ul.to/ryffe4ju
http://ul.to/igpehu4q
http://ul.to/4yptu1tb
http://ul.to/6n3fdptz
http://ul.to/xwd7nug9
http://ul.to/jch8tom1
http://ul.to/6pmtyd11
http://ul.to/90zcf72k
http://ul.to/scv7wrtm
http://ul.to/be7supw2
http://ul.to/uv74uojd
http://ul.to/gcv11ia0
http://ul.to/man2je7a

PUTLOCKER
Lo sentimos, este contenido está visible solamente para usuarios registrados. Click aquí para Registrarse

MEGA
Lo sentimos, este contenido está visible solamente para usuarios registrados. Click aquí para Registrarse


La Contraseña para todos los archivos es “chamako” (sin comillas y todo minusculas)

Apoyame comprando tu cuenta premium de estos servidores

Compra tu cuenta premium cada mes >>> FreakShare

Compra tu cuenta premium cada mes  >>> Uploaded

9 Comentarios

Deja un comentario

Compra premium Uploaded

uploaded

Facebook

Peliculas en 3D

Monsters Univrsity 3D

Pacific Rim 3D

Croods 3D

Star Trek 3D

Guerra Mundial Z 3D

Iron MAN 3 3D

Rip Departamento 3D

Los Pitufos 2 3 3D

Man of Steel 3 3D

Mi Villano favorito 2 3D

Aviones 3D

Turbo 2013 3D

Turbo 2013 3D

Percy Jackson 2013 3D

Gatsby 3D

Epic 3D

Gi Joe 2 3D

Hansel y Gretel 3D

Hansel y Gretel 3D

Oz 3D

The Hobbit 3D

Ilusionautas 3D

Life of Pi 3D

El Origen de los Guardianes 3D

Ralph el Demoledor 3D

Silent Hill Revelation 3D

Monster 3D

Monster 3D

Monster 3D

DREDD 3D 1080P

Brave 3D 1080P

Series en DVD

Spartacus Vengeance Season  2 DVD The Big Bang Theory Season 5 DVD Homeland Season 1 DVD Once Upon a Time Season 1 DVD The Walking Dead Season 2 DVD