Star Wars The Last Jedi (2017) 4K UHD Español Latino – Ingles [MEGA]

Por Chamako / hace 1 hora / 0 Comentarios ».

Star-Wars-The-Last-Jedi-2017-4K

Star Wars The Last Jedi (2017) 4K UHD Español Latino La malvada Primera Orden se ha vuelto más poderosa y tiene contra las cuerdas a la Resistencia, liderada por la General Leia Organa (Carrie Fisher). El piloto Poe Dameron interpretado por Oscar Isaac encabeza una misión para intentar destruir un acorazado de la Primera Orden. Mientras tanto, la joven Rey (Daisy Ridley) tendrá que definir su futuro y su vocación, y el viejo jedi Luke Skywalker (Mark Hamill) revaluar el significado de su vida.

INFORMACIÓN

Título original: Star Wars: The Last Jedi
También conocida como: Star Wars Episodio VIII Los últimos Jedi (2017) HD 1080p y 720p Latino
Otros títulos como: Star Wars: Los últimos Jedi
Duración: 150 Minutos
País: Estados Unidos
Dirección: Rian Johnson
Guion: Rian Johnson (Personajes: George Lucas)
Interpretado por: Daisy Ridley, John Boyega, Adam Driver, Óscar Isaac, Mark Hamill, entre otros.
Además pertenece al género: Ciencia ficción, Fantástico, Aventuras, Acción
Basado en temáticas como: Star Wars, Secuela, Aventura espacial

CAPTURAS




NFO

General
Unique ID : 205272621104139376089631766600503179689 (0x9A6E119B388790B1ACBCD4E653B6B9A9)
Complete name : Star.Wars.The.Last.Jedi.2017.UHD.BluRay.2160p.Latino-Chamako.mkv
Format : Matroska
Format version : Version 4 / Version 2
File size : 55.0 GiB
Duration : 2 h 31 min
Overall bit rate mode : Variable
Overall bit rate : 51.9 Mb/s
Movie name : Chamako.Net – Star Wars: The Last Jedi (2017) 4K
Encoded date : UTC 2018-03-23 15:14:52
Writing application : mkvmerge v7.9.0 (‘Birds’) 64bit
Writing library : libebml v1.3.1 + libmatroska v1.4.2

Video
ID : 1
Format : HEVC
Format/Info : High Efficiency Video Coding
Format profile : Main 10@L5.1@High
Codec ID : V_MPEGH/ISO/HEVC
Duration : 2 h 31 min
Bit rate : 45.9 Mb/s
Width : 3 840 pixels
Height : 2 160 pixels
Display aspect ratio : 16:9
Frame rate mode : Constant
Frame rate : 23.976 (24000/1001) FPS
Color space : YUV
Chroma subsampling : 4:2:0 (Type 2)
Bit depth : 10 bits
Bits/(Pixel*Frame) : 0.231
Stream size : 48.7 GiB (89%)
Title : Chamako.Net
Default : Yes
Forced : No
Color range : Limited
Color primaries : BT.2020
Transfer characteristics : PQ
Matrix coefficients : BT.2020 non-constant
Mastering display color primaries : R: x=0.680000 y=0.320000, G: x=0.265000 y=0.690000, B: x=0.150000 y=0.060000, White point: x=0.312700 y=0.329000
Mastering display luminance : min: 0.0020 cd/m2, max: 1000.0000 cd/m2

Audio #1
ID : 2
Format : E-AC-3
Format/Info : Enhanced Audio Coding 3
Format settings, Endianness : Big
Codec ID : A_EAC3
Duration : 2 h 31 min
Bit rate mode : Constant
Bit rate : 500 b/s
Channel(s) : 6 channels
Channel positions : Front: L C R, Side: L R, LFE
Sampling rate : 48.0 kHz
Frame rate : 187.500 FPS (256 SPF)
Compression mode : Lossy
Stream size : 1.09 GiB (2%)
Title : Audio Latino
Language : Spanish
Service kind : Complete Main
Default : Yes
Forced : Yes

Audio #2
ID : 3
Format : TrueHD
Format profile : TrueHD+Atmos / TrueHD
Codec ID : A_TRUEHD
Duration : 2 h 31 min
Bit rate mode : Variable
Bit rate : 3 941 kb/s
Maximum bit rate : 5 853 kb/s
Channel(s) : Object Based / 8 channels
Channel positions : Object Based / Front: L C R, Side: L R, Back: L R, LFE
Sampling rate : / 48.0 kHz
Frame rate : 1 200.000 FPS (40 SPF)
Compression mode : Lossless
Stream size : 4.18 GiB (8%)
Title : TrueHD Atmos 7.1
Language : English
Default : No
Forced : No

Audio #3
ID : 4
Format : AC-3
Format/Info : Audio Coding 3
Format settings, Endianness : Big
Codec ID : A_AC3
Duration : 2 h 31 min
Bit rate mode : Constant
Bit rate : 640 kb/s
Channel(s) : 6 channels
Channel positions : Front: L C R, Side: L R, LFE
Sampling rate : 48.0 kHz
Frame rate : 31.250 FPS (1536 SPF)
Bit depth : 16 bits
Compression mode : Lossy
Stream size : 695 MiB (1%)
Title : AC-3 5.1
Language : English
Service kind : Complete Main
Default : No
Forced : No

Audio #4
ID : 5
Format : AC-3
Format/Info : Audio Coding 3
Format settings, Endianness : Big
Codec ID : A_AC3
Duration : 2 h 31 min
Bit rate mode : Constant
Bit rate : 192 kb/s
Channel(s) : 2 channels
Channel positions : Front: L R
Sampling rate : 48.0 kHz
Frame rate : 31.250 FPS (1536 SPF)
Bit depth : 16 bits
Compression mode : Lossy
Stream size : 209 MiB (0%)
Title : Commentary by Writer/Director Rian Johnson
Language : English
Service kind : Complete Main
Default : No
Forced : No

Text #1
ID : 6
Format : PGS
Muxing mode : zlib
Codec ID : S_HDMV/PGS
Codec ID/Info : Picture based subtitle format used on BDs/HD-DVDs
Duration : 2 h 23 min
Bit rate : 10.5 kb/s
Count of elements : 3796
Stream size : 10.7 MiB (0%)
Title : English (SDH)
Language : English
Default : No
Forced : No

Text #2
ID : 7
Format : PGS
Muxing mode : zlib
Codec ID : S_HDMV/PGS
Codec ID/Info : Picture based subtitle format used on BDs/HD-DVDs
Duration : 2 h 25 min
Bit rate : 8 240 b/s
Count of elements : 3416
Stream size : 8.56 MiB (0%)
Title : French
Language : French
Default : No
Forced : No

Text #3
ID : 8
Format : PGS
Muxing mode : zlib
Codec ID : S_HDMV/PGS
Codec ID/Info : Picture based subtitle format used on BDs/HD-DVDs
Duration : 2 h 22 min
Bit rate : 8 391 b/s
Count of elements : 3182
Stream size : 8.56 MiB (0%)
Title : Spanish (Latin American)
Language : Spanish
Default : No
Forced : No

Text #4
ID : 9
Format : PGS
Muxing mode : zlib
Codec ID : S_HDMV/PGS
Codec ID/Info : Picture based subtitle format used on BDs/HD-DVDs
Duration : 2 h 24 min
Bit rate : 21.6 kb/s
Count of elements : 4798
Stream size : 22.3 MiB (0%)
Title : English (Commentary)
Language : English
Default : No
Forced : No

Text #5
ID : 10
Format : PGS
Muxing mode : zlib
Codec ID : S_HDMV/PGS
Codec ID/Info : Picture based subtitle format used on BDs/HD-DVDs
Duration : 2 h 24 min
Bit rate : 18.6 kb/s
Count of elements : 4758
Stream size : 19.2 MiB (0%)
Title : French (Commentary)
Language : French
Default : No
Forced : No

Text #6
ID : 11
Format : PGS
Muxing mode : zlib
Codec ID : S_HDMV/PGS
Codec ID/Info : Picture based subtitle format used on BDs/HD-DVDs
Duration : 2 h 24 min
Bit rate : 18.6 kb/s
Count of elements : 4758
Stream size : 19.2 MiB (0%)
Title : Spanish (Commentary)
Language : Spanish
Default : No
Forced : No

Menu
00:00:00.000 : en:Opening Logo
00:00:18.644 : en:The Last Jedi
00:01:45.731 : en:Resistance Evacuation
00:03:11.817 : en:Poe Attacks
00:07:43.296 : en:Bombing Run
00:12:48.434 : en:Finn Awakens
00:13:44.574 : en:Luke’s Refusal
00:16:29.280 : en:Snoke’s Rebuke
00:19:59.281 : en:Island Life
00:22:51.370 : en:”Time For The Jedi To End”
00:26:04.980 : en:”Dead Heroes. No Leaders”
00:27:22.850 : en:First Order Ambush
00:31:24.758 : en:Survival
00:32:54.681 : en:Falcon At Night
00:35:27.667 : en:Vice Admiral Holdo
00:38:11.498 : en:Finn Meets Rose
00:41:53.428 : en:A Conspiracy Forms
00:44:29.542 : en:Force Connection
00:46:51.475 : en:Lessons In The Force
00:51:41.932 : en:Reconnection
00:53:50.060 : en:Arrival At Canto Bight
00:55:41.505 : en:The Race Begins
00:57:39.581 : en:Lightsaber Training
00:59:16.636 : en:Luke’s History Lesson
01:02:05.847 : en:The Shrinking Fleet
01:03:07.701 : en:Meeting DJ
01:05:41.729 : en:Inside The Stables
01:07:03.478 : en:Fathier Escape
01:10:25.721 : en:Kylo’s History Lesson
01:13:30.323 : en:The Mirror Cave
01:17:43.450 : en:Rey VS. Luke
01:20:53.057 : en:An Old Friend
01:24:17.970 : en:Making The Deal
01:26:23.220 : en:Poe Confronts Holdo
01:27:59.524 : en:Plotting Next Moves
01:30:49.361 : en:Inside The Mega-Destroyer
01:32:54.569 : en:Reversals
01:35:53.706 : en:Abandon Ship
01:37:10.616 : en:Rey Faces Snoke
01:39:12.864 : en:Darkness Grows
01:42:07.663 : en:Kylo’s Choice
01:45:03.714 : en:Praetorian Duel
01:49:35.694 : en:Holdo’s Sacrifice
01:52:20.609 : en:Chaos In The Hangar
01:56:04.749 : en:Reunion On Crait
01:58:52.083 : en:The Battle Of Crait
02:03:11.134 : en:Siege Cannon
02:06:39.759 : en:Master Skywalker
02:11:43.604 : en:”Lifting Rocks”
02:15:12.104 : en:Sunset
02:20:16.700 : en:The Resistance Continues
02:23:39.694 : en:End Credits

DESCARGAR

UPLOADED

http://ul.to/b1t9bbxf
http://ul.to/8nw7kbmm
http://ul.to/m3x8p1v6
http://ul.to/ml0o05k6
http://ul.to/v6vlq69d
http://ul.to/3l9gpcry
http://ul.to/46gcwgd9
http://ul.to/l2239jul
http://ul.to/xofmjp4s
http://ul.to/na3gmiy7
http://ul.to/7nzf7z77
http://ul.to/hl3rk0r7
http://ul.to/081gkpqg
http://ul.to/tim38bv9
http://ul.to/vbqz200c
http://ul.to/n9x5rorg
http://ul.to/8g5zb3ad
http://ul.to/29zaje3d
http://ul.to/6ht4al5a
http://ul.to/a1i0ob12
http://ul.to/4dk5oenz
http://ul.to/5fl0u0no
http://ul.to/2we0bpg7
http://ul.to/8n3sup3l
http://ul.to/d0ofoi37
http://ul.to/u11ai4f1
http://ul.to/4norcc19
http://ul.to/t5vxy8fw
http://ul.to/tnic9jax
http://ul.to/ez1cemxf
http://ul.to/ertc7muk
http://ul.to/9qfjedhk
http://ul.to/bs96fsrr
http://ul.to/gnajcdt1
http://ul.to/pb0516ez
http://ul.to/7wxoe7xq
http://ul.to/e2zenc11
http://ul.to/15fe81nl
http://ul.to/gzsbldxo
http://ul.to/pgp7xbub
http://ul.to/i07npkqn
http://ul.to/k05icsac
http://ul.to/nm2ui1uh
http://ul.to/sxjf1apr
http://ul.to/jxwmp55r
http://ul.to/6g593l17
http://ul.to/ilh2p3xc
http://ul.to/6yvi4bql
http://ul.to/ecpdfmop
http://ul.to/szvnoqw6
http://ul.to/085uaess
http://ul.to/kmddor06
http://ul.to/pv63teyu
http://ul.to/tpb5b20g
http://ul.to/0ae16hl1
http://ul.to/vsia1by2
http://ul.to/nj77kbuz
http://ul.to/3icj7k4o
http://ul.to/pfxgc3dy
http://ul.to/35s84tv8

1FICHIER

https://1fichier.com/?ymtcui4p37
https://1fichier.com/?141rw3ysfr
https://1fichier.com/?30de37h3w8
https://1fichier.com/?302ggwk2pz
https://1fichier.com/?vreyy4o1b0
https://1fichier.com/?kcapxhgxwc
https://1fichier.com/?x0nkh4r3rk
https://1fichier.com/?wcdk4hm4uk
https://1fichier.com/?zl8oxdjug0
https://1fichier.com/?an88xmk0v7
https://1fichier.com/?yk58aklzus
https://1fichier.com/?qbu406reha
https://1fichier.com/?so8gdj562l
https://1fichier.com/?2uhgv47vxv
https://1fichier.com/?g6og4niynu
https://1fichier.com/?y1bflbmo5m
https://1fichier.com/?ub5g6g3u60
https://1fichier.com/?k001pdq6ub
https://1fichier.com/?kger5wxp7e
https://1fichier.com/?r4v86ipm6v
https://1fichier.com/?sznpf23fuv
https://1fichier.com/?zs6efifyfa
https://1fichier.com/?mn2mtu4gnx
https://1fichier.com/?q3dqqqxfwe
https://1fichier.com/?sllsklswfb
https://1fichier.com/?l5kcgty111
https://1fichier.com/?hvscn0fibs
https://1fichier.com/?0jb8bcaltz
https://1fichier.com/?wfan2x7gdg
https://1fichier.com/?xos7mjn86w
https://1fichier.com/?c49d3g14el
https://1fichier.com/?mbzznbovt0
https://1fichier.com/?83q37bb1a2
https://1fichier.com/?tp4v31hc8k
https://1fichier.com/?tmbmofxwx3
https://1fichier.com/?dgnyfti8yt
https://1fichier.com/?vrzcrmbk9p
https://1fichier.com/?yxrzv329m3
https://1fichier.com/?zrembggf3y
https://1fichier.com/?tvm55tuod7
https://1fichier.com/?hztug3phnn
https://1fichier.com/?7lncpmy3e6
https://1fichier.com/?x8mgh5l7k8
https://1fichier.com/?ioknzum68m
https://1fichier.com/?juxhqhhgpy
https://1fichier.com/?ifg1dldm7j
https://1fichier.com/?q7m7ppr1cr
https://1fichier.com/?wfcyyntrxg
https://1fichier.com/?mm9wtfmrm7
https://1fichier.com/?wa6iujmdo8
https://1fichier.com/?z3hb0kxeif
https://1fichier.com/?kjxhy65ulv
https://1fichier.com/?vhffddwxdk
https://1fichier.com/?h54o0uieof
https://1fichier.com/?yzjnrx6pyz
https://1fichier.com/?z43rbpwecy
https://1fichier.com/?2qabfn5pts
https://1fichier.com/?55uebe6ze0
https://1fichier.com/?wa92s4cr72
https://1fichier.com/?de0nbv655f

GO4UP

Lo sentimos, este contenido está visible solamente para usuarios registrados. Click aquí para Registrarse

Deja un comentario

Compra premium Uploaded

uploaded

Facebook

Peliculas en 3D

Monsters Univrsity 3D

Pacific Rim 3D

Croods 3D

Star Trek 3D

Guerra Mundial Z 3D

Iron MAN 3 3D

Rip Departamento 3D

Los Pitufos 2 3 3D

Man of Steel 3 3D

Mi Villano favorito 2 3D

Aviones 3D

Turbo 2013 3D

Turbo 2013 3D

Percy Jackson 2013 3D

Gatsby 3D

Epic 3D

Gi Joe 2 3D

Hansel y Gretel 3D

Hansel y Gretel 3D

Oz 3D

The Hobbit 3D

Ilusionautas 3D

Life of Pi 3D

El Origen de los Guardianes 3D

Ralph el Demoledor 3D

Silent Hill Revelation 3D

Monster 3D

Monster 3D

Monster 3D

DREDD 3D 1080P

Brave 3D 1080P

Series en DVD

Spartacus Vengeance Season  2 DVD The Big Bang Theory Season 5 DVD Homeland Season 1 DVD Once Upon a Time Season 1 DVD The Walking Dead Season 2 DVD