The Croods (2013) [3D SBS][BDRip 1080P][Español Latino 5.1/Ingles DTS][Subtitulos Español 3D]

Por Chamako / hace 4 años / 4 Comentarios ».

Resubido 08/01/14
croods

Sigue los pasos de la primera familia moderna del mundo durante el viaje de su vida. Cuando la caverna que siempre ha sido su hogar es destruida –al igual que el resto de su mundo poco después– los Croods se ven obligados a emprender el primer viaje familiar por carretera (o más bien sendero). Sacudidos por choques generacionales y por movimientos sísmicos, los Croods descubren un increíble nuevo mundo, lleno de fantásticas criaturas, y un futuro que supera cuanto habían imaginado.


Título: Los Croods
Título original: The Croods
País: USA
Estreno en USA: 22/03/2013
Estreno en España: 22/03/2013
Lanzamiento en DVD (alquiler): 25/09/2013
Estreno en DVD (venta): 02/10/2013
Estreno en Blu-ray: 25/09/2013
Productora: Aardman Animations, DreamWorks Animation
Director: Chris Sanders, Kirk DeMicco
Guión: Chris Sanders, Kirk DeMicco
Reparto: (Voces de) Nicolas Cage, Ryan Reynolds, Emma Stone, Catherine Keener, Clark Duke, Cloris Leachman
Calificación: Apta para todos los públicos


c2013-09-18-12h33m12s103.png
c2013-09-18-12h27m52s207.png
c2013-09-18-12h28m26s81.png
c2013-09-18-12h27m52s207.png

General
Unique ID : 173776607479000450476314357406772445989 (0x82BC283E1D2AA498A94A82C5C65F4325)
Complete name : The Croods 3D 2013.mkv
Format : Matroska
Format version : Version 2
File size : 8.99 GiB
Duration : 1h 38mn
Overall bit rate : 13.0 Mbps
Movie name : www.Chamako.Net – The Croods (2013) 3D SBS BDRip 1080P Latino
Encoded date : UTC 2013-09-17 23:31:16
Writing application : mkvmerge v3.4.0 (‘Rapunzel’) built on May 15 2010 09:38:20
Writing library : libebml v0.8.0 + libmatroska v0.9.0

Video
ID : 1
Format : AVC
Format/Info : Advanced Video Codec
Format profile : High@L4.1
MultiView_Count : 2
MultiView_Layout : Right Eye
Format settings, CABAC : Yes
Format settings, ReFrames : 4 frames
Codec ID : V_MPEG4/ISO/AVC
Duration : 1h 38mn
Bit rate : 10.8 Mbps
Width : 1 920 pixels
Height : 1 080 pixels
Display aspect ratio : 16:9
Frame rate mode : Constant
Frame rate : 23.976 fps
Color space : YUV
Chroma subsampling : 4:2:0
Bit depth : 8 bits
Scan type : Progressive
Bits/(Pixel*Frame) : 0.218
Stream size : 7.46 GiB (83%)
Title : www.Chamako.Net – The Croods 3D 2013
Language : English
Default : No
Forced : No

Audio #1
ID : 2
Format : AC-3
Format/Info : Audio Coding 3
Mode extension : CM (complete main)
Format settings, Endianness : Big
Codec ID : A_AC3
Duration : 1h 38mn
Bit rate mode : Constant
Bit rate : 448 Kbps
Channel(s) : 6 channels
Channel positions : Front: L C R, Side: L R, LFE
Sampling rate : 48.0 KHz
Bit depth : 16 bits
Compression mode : Lossy
Stream size : 316 MiB (3%)
Title : www.Chamako.Net – Audio Latino 5.1
Language : Spanish
Default : Yes
Forced : No

Audio #2
ID : 3
Format : DTS
Format/Info : Digital Theater Systems
Mode : 16
Format settings, Endianness : Big
Codec ID : A_DTS
Duration : 1h 38mn
Bit rate mode : Constant
Bit rate : 1 509 Kbps
Channel(s) : 6 channels
Channel positions : Front: L C R, Side: L R, LFE
Sampling rate : 48.0 KHz
Bit depth : 24 bits
Compression mode : Lossy
Delay relative to video : 11ms
Stream size : 1.04 GiB (12%)
Title : www.Chamako.Net – Ingles DTS
Language : English
Default : No
Forced : No

Text
ID : 4
Format : ASS
Codec ID : S_TEXT/ASS
Codec ID/Info : Advanced Sub Station Alpha
Compression mode : Lossless
Title : www.Chamako.Net – Spanish 3D
Language : Spanish
Default : No
Forced : No

Menu
00:00:00.000 : en:00:00:00.000
00:02:34.988 : en:00:02:34.988
00:04:51.750 : en:00:04:51.750
00:09:01.249 : en:00:09:01.249
00:12:21.115 : en:00:12:21.115
00:14:04.802 : en:00:14:04.802
00:18:33.029 : en:00:18:33.029
00:21:56.982 : en:00:21:56.982
00:23:24.737 : en:00:23:24.737
00:26:49.775 : en:00:26:49.775
00:28:37.132 : en:00:28:37.132
00:30:25.657 : en:00:30:25.657
00:32:48.633 : en:00:32:48.633
00:36:03.370 : en:00:36:03.370
00:38:33.561 : en:00:38:33.561
00:41:34.534 : en:00:41:34.534
00:44:38.843 : en:00:44:38.843
00:48:02.630 : en:00:48:02.630
00:52:10.961 : en:00:52:10.961
00:55:17.481 : en:00:55:17.481
01:00:14.778 : en:01:00:14.778
01:03:58.084 : en:01:03:58.084
01:05:48.736 : en:01:05:48.736
01:08:44.037 : en:01:08:44.037
01:10:47.285 : en:01:10:47.285
01:12:37.144 : en:01:12:37.144
01:14:01.646 : en:01:14:01.646
01:19:48.575 : en:01:19:48.575
01:23:09.860 : en:01:23:09.860
01:25:16.737 : en:01:25:16.737
01:28:04.321 : en:01:28:04.321
01:30:02.230 : en:01:30:02.230

FREAKSHARE

http://freakshare.com/files/fefunicw/TCR03DChamako.part01.rar.html
http://freakshare.com/files/dft59gnc/TCR03DChamako.part01.rev.html
http://freakshare.com/files/ge89eamn/TCR03DChamako.part02.rar.html
http://freakshare.com/files/g5czm4cr/TCR03DChamako.part02.rev.html
http://freakshare.com/files/4u9nsdkp/TCR03DChamako.part03.rar.html
http://freakshare.com/files/mj8zfwz2/TCR03DChamako.part04.rar.html
http://freakshare.com/files/exkipzb1/TCR03DChamako.part05.rar.html
http://freakshare.com/files/hu72v0ya/TCR03DChamako.part06.rar.html
http://freakshare.com/files/9r6uja2n/TCR03DChamako.part07.rar.html
http://freakshare.com/files/5d9k78qu/TCR03DChamako.part08.rar.html
http://freakshare.com/files/e2qm02sp/TCR03DChamako.part09.rar.html
http://freakshare.com/files/31ha4bfr/TCR03DChamako.part10.rar.html
http://freakshare.com/files/683bgfdz/TCR03DChamako.part11.rar.html
http://freakshare.com/files/n9rebfxu/TCR03DChamako.part12.rar.html
http://freakshare.com/files/0jqhpavi/TCR03DChamako.part13.rar.html
http://freakshare.com/files/rmtq56ne/TCR03DChamako.part14.rar.html
http://freakshare.com/files/7ur1q0yi/TCR03DChamako.part15.rar.html
http://freakshare.com/files/x642ifl3/TCR03DChamako.part16.rar.html
http://freakshare.com/files/lkgpk0zj/TCR03DChamako.part17.rar.html
http://freakshare.com/files/vkxgqesl/TCR03DChamako.part18.rar.html
http://freakshare.com/files/gqhqwtmo/TCR03DChamako.part19.rar.html

UPLOADED

http://ul.to/shi4zp4e
http://ul.to/ole1bzn0
http://ul.to/0whib1gd
http://ul.to/435s9tlc
http://ul.to/x61vpjl3
http://ul.to/emcbg888
http://ul.to/vy6moril
http://ul.to/ekrsh92v
http://ul.to/zqbzacsc
http://ul.to/9c67f28p
http://ul.to/8esm5puf
http://ul.to/hif23nbq
http://ul.to/p4kyyn3h
http://ul.to/o0k1ce4a
http://ul.to/uqvhus5j
http://ul.to/qqpirhkn
http://ul.to/z31hae5k
http://ul.to/3fssk85y
http://ul.to/1crm5snk
http://ul.to/wvvqgnle
http://ul.to/lxs2dbdm

PUTLOCKER
Lo sentimos, este contenido está visible solamente para usuarios registrados. Click aquí para Registrarse

MEGA
Lo sentimos, este contenido está visible solamente para usuarios registrados. Click aquí para Registrarse


La Contraseña para todos los archivos es “chamako” (sin comillas y todo minusculas)

Apoyame comprando tu cuenta premium de estos servidores

Compra tu cuenta premium cada mes >>> FreakShare

Compra tu cuenta premium cada mes  >>> Uploaded

4 Comentarios

Deja un comentario

Compra premium Uploaded

uploaded

Facebook

Peliculas en 3D

Monsters Univrsity 3D

Pacific Rim 3D

Croods 3D

Star Trek 3D

Guerra Mundial Z 3D

Iron MAN 3 3D

Rip Departamento 3D

Los Pitufos 2 3 3D

Man of Steel 3 3D

Mi Villano favorito 2 3D

Aviones 3D

Turbo 2013 3D

Turbo 2013 3D

Percy Jackson 2013 3D

Gatsby 3D

Epic 3D

Gi Joe 2 3D

Hansel y Gretel 3D

Hansel y Gretel 3D

Oz 3D

The Hobbit 3D

Ilusionautas 3D

Life of Pi 3D

El Origen de los Guardianes 3D

Ralph el Demoledor 3D

Silent Hill Revelation 3D

Monster 3D

Monster 3D

Monster 3D

DREDD 3D 1080P

Brave 3D 1080P

Series en DVD

Spartacus Vengeance Season  2 DVD The Big Bang Theory Season 5 DVD Homeland Season 1 DVD Once Upon a Time Season 1 DVD The Walking Dead Season 2 DVD