The Hobbit (2012) [3D SBS][BDRip 1080p][Español Latino 5.1/Ingles DTS][Sub.Español 3D]

Por Chamako / hace 4 años / 11 Comentarios ».

El director galardonado con un premio de la Academia® Peter Jackson nos ofrece ‘El Hobbit: Un viaje inesperado’, la primera parte de la adaptación de la imperecedera y popular obra maestra El Hobbit, de J.R.R. Tolkien.

La aventura sigue el viaje del protagonista Bilbo Bolsón, que se embarca en la recuperación del tesoro y del reino enano de Erebor arrebatados por el terrible dragón Smaug. Alcanzado de repente por el mago Gandalf el Gris, Bilbo se encuentra acompañado de trece enanos dirigidos por el legendario guerrero Thorin Escudo de roble. Su viaje les hace adentrarse en el bosque cruzando tierras peligrosas, donde se encontrarán con trasgos, orcos, wargos salvajes, arañas gigantes, cambia pieles y hechiceros.

Titulo: El hobbit: Un viaje inesperado
Titulo original: The Hobbit: An Unexpected Journey
Pais: USA
Estreno en USA: 14/12/2012
Estreno en España: 14/12/2012
Productora: New Line Cinema (Warner Bros.), Metro-Goldwyn-Mayer (MGM)
Director: Peter Jackson
Guion: Peter Jackson, Fran Walsh, Guillermo del Toro & Philippa Boyens
Reparto: Ian McKellen, Martin Freeman, Cate Blanchett, Orlando Bloom, Ian Holm, Christopher Lee, Hugo Weaving, Elijah Wood, Andy Serkis, Richard Armitage, Jed Brophy, Adam Brown, John Callen, Stephen Fry, Ryan Gage, Mark Hadlow, Peter Hambleton, Stephen Hunter, William Kircher, Sylvester McCoy, Bret McKenzie, Graham McTavish, Mike Mizrahi, James Nesbitt, Dean Gorman, Lee Pace, Mikael Persbrandt, Conan Stevens, Ken Stott, Jeffrey Thomas, Aidan Turner, Luke Evans, Benedict Cumberbatch, Evangeline Lilly, Barry Humphries

Calificacion: No recomendada para menores de 7 años

c2013-03-04-01h43m49s33.png
c2013-03-04-01h33m44s87.png

c2013-03-04-01h48m45s154.png

c2013-03-04-01h37m48s242.png

c2013-03-04-01h44m15s10.png

c2013-03-04-01h47m05s198.png

General
Unique ID : 212341803441777086289135241192853433773 (0x9FBF8B34782FC53B881C43F0CDAB6DAD)
Complete name : The Hobbit 2012 3D SBS 1080P Latino By Chamako.mkv
Format : Matroska
Format version : Version 2
File size : 17.1 GiB
Duration : 2h 49mn
Overall bit rate : 14.4 Mbps
Movie name : www.Chamako.Net – The Hobbit (2012) 3D SBS 1080P Latino
Encoded date : UTC 2013-03-04 09:24:13
Writing application : mkvmerge v3.4.0 (‘Rapunzel’) built on May 15 2010 09:38:20
Writing library : libebml v0.8.0 + libmatroska v0.9.0

Video
ID : 1
Format : AVC
Format/Info : Advanced Video Codec
Format profile : High@L4.1
MultiView_Count : 2
MultiView_Layout : Right Eye
Format settings, CABAC : Yes
Format settings, ReFrames : 4 frames
Codec ID : V_MPEG4/ISO/AVC
Duration : 2h 49mn
Bit rate : 12.2 Mbps
Width : 1 920 pixels
Height : 1 080 pixels
Display aspect ratio : 16:9
Frame rate mode : Constant
Frame rate : 23.976 fps
Color space : YUV
Chroma subsampling : 4:2:0
Bit depth : 8 bits
Scan type : Progressive
Bits/(Pixel*Frame) : 0.245
Stream size : 14.4 GiB (84%)
Title : www.Chamako.Net – The Hobbit
Writing library : x264 core 130 r2273 b3065e6
Encoding settings : cabac=1 / ref=4 / deblock=1:-3:-3 / analyse=0x3:0x113 / me=umh / subme=9 / psy=1 / psy_rd=1.00:0.15 / mixed_ref=1 / me_range=16 / chroma_me=1 / trellis=1 / 8x8dct=1 / cqm=0 / deadzone=21,11 / fast_pskip=1 / chroma_qp_offset=-3 / threads=12 / lookahead_threads=1 / sliced_threads=0 / nr=0 / decimate=1 / interlaced=0 / bluray_compat=0 / constrained_intra=0 / bframes=6 / b_pyramid=2 / b_adapt=1 / b_bias=0 / direct=3 / weightb=1 / open_gop=0 / weightp=2 / keyint=250 / keyint_min=23 / scenecut=40 / intra_refresh=0 / rc_lookahead=40 / rc=crf / mbtree=1 / crf=16.0 / qcomp=0.60 / qpmin=10 / qpmax=69 / qpstep=4 / vbv_maxrate=40000 / vbv_bufsize=30000 / crf_max=0.0 / nal_hrd=none / ip_ratio=1.40 / aq=1:1.00
Default : No
Forced : No

Audio #1
ID : 2
Format : DTS
Format/Info : Digital Theater Systems
Mode : 16
Format settings, Endianness : Big
Codec ID : A_DTS
Duration : 2h 49mn
Bit rate mode : Constant
Bit rate : 1 509 Kbps
Channel(s) : 6 channels
Channel positions : Front: L C R, Side: L R, LFE
Sampling rate : 48.0 KHz
Bit depth : 24 bits
Compression mode : Lossy
Delay relative to video : 11ms
Stream size : 1.79 GiB (10%)
Title : www.Chamako.Net – EnglishDTS
Language : English
Default : No
Forced : No

Audio #2
ID : 3
Format : AC-3
Format/Info : Audio Coding 3
Mode extension : CM (complete main)
Format settings, Endianness : Big
Codec ID : A_AC3
Duration : 2h 49mn
Bit rate mode : Constant
Bit rate : 448 Kbps
Channel(s) : 6 channels
Channel positions : Front: L C R, Side: L R, LFE
Sampling rate : 48.0 KHz
Bit depth : 16 bits
Compression mode : Lossy
Stream size : 544 MiB (3%)
Title : www.Chamako.Net – Latino 5.1
Language : Spanish
Default : No
Forced : No

Text #1
ID : 4
Format : ASS
Codec ID : S_TEXT/ASS
Codec ID/Info : Advanced Sub Station Alpha
Compression mode : Lossless
Title : www.Chamako.Net – Spanish Forzados 3D
Language : Spanish
Default : Yes
Forced : Yes

Text #2
ID : 5
Format : ASS
Codec ID : S_TEXT/ASS
Codec ID/Info : Advanced Sub Station Alpha
Compression mode : Lossless
Title : www.Chamako.Net – Spanish Completos 3D
Language : Spanish
Default : No
Forced : No

Menu
00:00:00.000 : en:00:00:00.000
00:08:51.531 : en:00:08:51.531
00:12:58.903 : en:00:12:58.903
00:16:34.619 : en:00:16:34.619
00:20:50.666 : en:00:20:50.666
00:25:09.007 : en:00:25:09.007
00:33:14.409 : en:00:33:14.409
00:38:26.804 : en:00:38:26.804
00:43:40.368 : en:00:43:40.368
00:50:12.301 : en:00:50:12.301
00:55:16.939 : en:00:55:16.939
00:57:04.838 : en:00:57:04.838
01:07:51.985 : en:01:07:51.985
01:12:11.369 : en:01:12:11.369
01:16:03.559 : en:01:16:03.559
01:22:06.463 : en:01:22:06.463
01:28:49.991 : en:01:28:49.991
01:32:03.518 : en:01:32:03.518
01:40:33.117 : en:01:40:33.117
01:43:10.357 : en:01:43:10.357
01:49:16.473 : en:01:49:16.473
01:54:08.098 : en:01:54:08.098
01:57:01.605 : en:01:57:01.605
02:10:31.455 : en:02:10:31.455
02:12:29.532 : en:02:12:29.532
02:13:41.228 : en:02:13:41.228
02:18:02.948 : en:02:18:02.948
02:20:12.869 : en:02:20:12.869
02:23:02.622 : en:02:23:02.622
02:34:02.073 : en:02:34:02.073
02:39:31.068 : en:02:39:31.068

FREAKSHARE

http://freakshare.com/files/w3526xyf/P109EI21RF.part01.rar.html
http://freakshare.com/files/qtdbjndg/P109EI21RF.part01.rev.html
http://freakshare.com/files/5xi4nb2o/P109EI21RF.part02.rar.html
http://freakshare.com/files/emm4ei3o/P109EI21RF.part02.rev.html
http://freakshare.com/files/cplo08mm/P109EI21RF.part03.rar.html
http://freakshare.com/files/9d5t69l5/P109EI21RF.part03.rev.html
http://freakshare.com/files/aas91l4b/P109EI21RF.part04.rar.html
http://freakshare.com/files/94g492ny/P109EI21RF.part05.rar.html
http://freakshare.com/files/ndocn30g/P109EI21RF.part06.rar.html
http://freakshare.com/files/ma07y6di/P109EI21RF.part07.rar.html
http://freakshare.com/files/856hhpgt/P109EI21RF.part08.rar.html
http://freakshare.com/files/3wc4yjxf/P109EI21RF.part09.rar.html
http://freakshare.com/files/kfnev3b3/P109EI21RF.part10.rar.html
http://freakshare.com/files/iflk2nhg/P109EI21RF.part11.rar.html
http://freakshare.com/files/rtpr18xq/P109EI21RF.part12.rar.html
http://freakshare.com/files/ct5mdl0o/P109EI21RF.part13.rar.html
http://freakshare.com/files/o6y5ie2w/P109EI21RF.part14.rar.html
http://freakshare.com/files/jlwabhp5/P109EI21RF.part15.rar.html
http://freakshare.com/files/90hselps/P109EI21RF.part16.rar.html
http://freakshare.com/files/tv0rhxv6/P109EI21RF.part17.rar.html
http://freakshare.com/files/a0p83ajs/P109EI21RF.part18.rar.html
http://freakshare.com/files/g71ll5ba/P109EI21RF.part19.rar.html
http://freakshare.com/files/eknr8eny/P109EI21RF.part20.rar.html
http://freakshare.com/files/7abf2825/P109EI21RF.part21.rar.html
http://freakshare.com/files/wax3f6lg/P109EI21RF.part22.rar.html

UPLOADED

http://ul.to/vfaroh5k
http://ul.to/gj7b9xkz
http://ul.to/5csm9fch
http://ul.to/npccce74
http://ul.to/gwextgty
http://ul.to/l87jk5p1
http://ul.to/pgv7l97n
http://ul.to/mv59smn8
http://ul.to/8gse5m5j
http://ul.to/c2uctdcp
http://ul.to/dbabl02b
http://ul.to/midu4e2d
http://ul.to/kwpgj7ty
http://ul.to/akihfjx7
http://ul.to/hj5ekl64
http://ul.to/s60phzk4
http://ul.to/df89kiap
http://ul.to/01z9h34j
http://ul.to/va1hi195
http://ul.to/0jvx2jec
http://ul.to/tyd4o5b3
http://ul.to/9xtr12w0
http://ul.to/8c76qiqz
http://ul.to/y8ebu0kq
http://ul.to/uo7c7v66

PUTLOCKER
Lo sentimos, este contenido está visible solamente para usuarios registrados. Click aquí para Registrarse


La Contraseña para todos los archivos es “chamako” (sin comillas y todo minusculas)

Apoyame comprando tu cuenta premium de estos servidores

Compra tu cuenta premium cada mes >>> FreakShare

Compra tu cuenta premium cada mes  >>> Uploaded

11 Comentarios

Deja un comentario

Compra premium Uploaded

uploaded

Facebook

Peliculas en 3D

Monsters Univrsity 3D

Pacific Rim 3D

Croods 3D

Star Trek 3D

Guerra Mundial Z 3D

Iron MAN 3 3D

Rip Departamento 3D

Los Pitufos 2 3 3D

Man of Steel 3 3D

Mi Villano favorito 2 3D

Aviones 3D

Turbo 2013 3D

Turbo 2013 3D

Percy Jackson 2013 3D

Gatsby 3D

Epic 3D

Gi Joe 2 3D

Hansel y Gretel 3D

Hansel y Gretel 3D

Oz 3D

The Hobbit 3D

Ilusionautas 3D

Life of Pi 3D

El Origen de los Guardianes 3D

Ralph el Demoledor 3D

Silent Hill Revelation 3D

Monster 3D

Monster 3D

Monster 3D

DREDD 3D 1080P

Brave 3D 1080P

Series en DVD

Spartacus Vengeance Season  2 DVD The Big Bang Theory Season 5 DVD Homeland Season 1 DVD Once Upon a Time Season 1 DVD The Walking Dead Season 2 DVD