The Wolverine (2013) [Theatrical Cut] [3D SBS] [BDRip 1080p] [Español Latino 5.1/Ingles DTS] [Sub.Español Completos & Forzados 3D]

Por Chamako / hace 3 años / 12 Comentarios ».

Resubido 07/01/14
the wolverine

Basada en el aclamado cómic, esta épica aventura lleva a Lobezno (Hugh Jackman), el personaje más icónico del universo de los X-Men, a Japón en la actualidad. En un mundo desconocido para él se enfrentará a su peor enemigo en una lucha a vida o muerte que le cambiará para siempre. Vulnerable por primera vez y desafiando sus límites físicos y emocionales, no sólo se enfrenta al letal acero samurái, sino también a una lucha interna contra su propia inmortalidad que le volverá más fuerte de lo que jamás le hemos visto.

Título: Lobezno inmortal
Título original: The Wolverine
País: USA
Estreno en USA: 26/07/2013
Estreno en España: 24/07/2013
Lanzamiento en DVD (alquiler): 20/11/2013
Estreno en DVD (venta): 27/11/2013
Blu-ray 3D: 27/11/2013
Estreno en Blu-ray: 27/11/2013
Productora: 20th Century Fox
Director: James Mangold
Guión: Christopher McQuarrie, Mark Bomback
Reparto: Hugh Jackman, Will Yun Lee, Khodchenkova, Hiroyuki Sanada, Hal Yamanouchi, Tao Okamoto, Rila Fukushima, Brian Tee, Svetlana Khodchenkova
Calificación: No recomendada para menores de 16 años


c2013-11-08-02h36m54s3.png
c2013-11-08-02h37m03s65.png
c2013-11-08-02h38m21s97.png
c2013-11-08-02h37m25s37.png

General
Unique ID : 208881751751523433062388120614151407590 (0x9D25297C556E9D62AFF46594C25847E6)
Complete name : The.Wolverine.3D.2013.1080p.BluRay.Half-SBS.DTS-Latino.Chamako.mkv
Format : Matroska
Format version : Version 2
File size : 11.9 GiB
Duration : 2h 11mn
Overall bit rate : 13.0 Mbps
Movie name : www.Chamako.Net – The Wolverine (2013) 3D SBS 1080P Latino
Encoded date : UTC 2013-11-08 10:41:07
Writing application : mkvmerge v3.4.0 (‘Rapunzel’) built on May 15 2010 09:38:20
Writing library : libebml v0.8.0 + libmatroska v0.9.0

Video
ID : 1
Format : AVC
Format/Info : Advanced Video Codec
Format profile : High@L4.1
Format settings, CABAC : Yes
Format settings, ReFrames : 2 frames
Codec ID : V_MPEG4/ISO/AVC
Duration : 2h 11mn
Bit rate : 10.8 Mbps
Width : 1 920 pixels
Height : 1 080 pixels
Display aspect ratio : 16:9
Frame rate mode : Constant
Frame rate : 23.976 fps
Color space : YUV
Chroma subsampling : 4:2:0
Bit depth : 8 bits
Scan type : Progressive
Bits/(Pixel*Frame) : 0.217
Stream size : 9.90 GiB (83%)
Title : www.Chamako.Net – The Wolverine 2013
Writing library : x264 core
Language : English
Default : No
Forced : No
Color primaries : BT.709
Transfer characteristics : BT.709
Matrix coefficients : BT.709

Audio #1
ID : 2
Format : AC-3
Format/Info : Audio Coding 3
Mode extension : CM (complete main)
Format settings, Endianness : Big
Codec ID : A_AC3
Duration : 2h 11mn
Bit rate mode : Constant
Bit rate : 384 Kbps
Channel(s) : 6 channels
Channel positions : Front: L C R, Side: L R, LFE
Sampling rate : 48.0 KHz
Bit depth : 16 bits
Compression mode : Lossy
Stream size : 360 MiB (3%)
Title : www.Chamako.Net – Latino 5.1
Language : Spanish
Default : Yes
Forced : No

Audio #2
ID : 3
Format : DTS
Format/Info : Digital Theater Systems
Format profile : ES
Mode : 16
Format settings, Endianness : Big
Codec ID : A_DTS
Duration : 2h 11mn
Bit rate mode : Constant
Bit rate : 1 509 Kbps
Channel(s) : 6 channels
Channel positions : Front: L C R, Side: L R, LFE
Sampling rate : 48.0 KHz
Bit depth : 24 bits
Compression mode : Lossy
Delay relative to video : 11ms
Stream size : 1.38 GiB (12%)
Title : www.Chamako.Net – English DTS
Language : English
Default : No
Forced : No

Text #1
ID : 4
Format : PGS
Codec ID : S_HDMV/PGS
Codec ID/Info : The same subtitle format used on BDs/HD-DVDs
Title : www.Chamako.Net – English
Language : English
Default : No
Forced : No

Text #2
ID : 5
Format : ASS
Codec ID : S_TEXT/ASS
Codec ID/Info : Advanced Sub Station Alpha
Compression mode : Lossless
Title : www.Chamako.Net – Spanish Forzados
Language : Spanish
Default : No
Forced : Yes

Text #3
ID : 6
Format : ASS
Codec ID : S_TEXT/ASS
Codec ID/Info : Advanced Sub Station Alpha
Compression mode : Lossless
Title : www.Chamako.Net – Spanish Completos
Language : Spanish
Default : No
Forced : No

Menu
00:00:00.000 : en:00:00:00.000
00:05:03.720 : en:00:05:03.720
00:07:39.668 : en:00:07:39.668
00:08:40.437 : en:00:08:40.437
00:10:25.500 : en:00:10:25.500
00:13:56.794 : en:00:13:56.794
00:16:49.300 : en:00:16:49.300
00:19:13.069 : en:00:19:13.069
00:22:03.739 : en:00:22:03.739
00:26:38.305 : en:00:26:38.305
00:28:53.398 : en:00:28:53.398
00:30:21.403 : en:00:30:21.403
00:33:43.146 : en:00:33:43.146
00:38:08.244 : en:00:38:08.244
00:42:42.310 : en:00:42:42.310
00:44:19.073 : en:00:44:19.073
00:47:06.741 : en:00:47:06.741
00:52:38.280 : en:00:52:38.280
00:54:37.316 : en:00:54:37.316
01:00:06.478 : en:01:00:06.478
01:06:16.222 : en:01:06:16.222
01:11:36.959 : en:01:11:36.959
01:16:25.206 : en:01:16:25.206
01:19:30.808 : en:01:19:30.808
01:22:34.575 : en:01:22:34.575
01:27:33.206 : en:01:27:33.206
01:30:37.140 : en:01:30:37.140
01:33:00.033 : en:01:33:00.033
01:36:33.204 : en:01:36:33.204
01:40:14.217 : en:01:40:14.217
01:43:04.512 : en:01:43:04.512
01:46:07.570 : en:01:46:07.570
01:51:06.076 : en:01:51:06.076
01:53:01.483 : en:01:53:01.483
01:55:50.777 : en:01:55:50.777
01:57:21.451 : en:01:57:21.451

SMAPLE

The.Wolverine.3D.2013.1080p.BluRay.Half-SBS.DTS-Latino.Chamako (1)-027 from Gerardo on Vimeo.

FREAKSHARE

http://freakshare.com/files/nutokjv4/3DSCHNCHAMAKO.part01.rar.html
http://freakshare.com/files/xsm63avk/3DSCHNCHAMAKO.part20.rar.html

UPLOADED

http://ul.to/fk524ful
http://ul.to/694ogmva
http://ul.to/p40mfn1u
http://ul.to/i7sh34bl
http://ul.to/78189y57
http://ul.to/2ayco9qc
http://ul.to/548dnyh2
http://ul.to/a5hfhpdq
http://ul.to/sku1zaqf
http://ul.to/1usk595l
http://ul.to/s4u8smbg
http://ul.to/nbzjwnzx
http://ul.to/hl3gpzkw
http://ul.to/qn391mqk
http://ul.to/igf6djp5
http://ul.to/6jhy5rxr
http://ul.to/j8t4wd9o
http://ul.to/pa1y95aq
http://ul.to/zauenek5
http://ul.to/n09hrszi
http://ul.to/v33ltpiy
http://ul.to/xlzf1k4z

PUTLOCKER
Lo sentimos, este contenido está visible solamente para usuarios registrados. Click aquí para Registrarse

MEGA
Lo sentimos, este contenido está visible solamente para usuarios registrados. Click aquí para Registrarse

Audio Latino Solo – Extraido del Vluray

http://ul.to/zs18y0wm
http://www.putlocker.com/file/84CABBB4FB244027


La Contraseña para todos los archivos es “chamako” (sin comillas y todo minusculas)

Apoyame comprando tu cuenta premium de estos servidores

Compra tu cuenta premium cada mes >>> FreakShare

Compra tu cuenta premium cada mes  >>> Uploaded

12 Comentarios

Deja un comentario

Compra premium Uploaded

uploaded

Facebook

Peliculas en 3D

Monsters Univrsity 3D

Pacific Rim 3D

Croods 3D

Star Trek 3D

Guerra Mundial Z 3D

Iron MAN 3 3D

Rip Departamento 3D

Los Pitufos 2 3 3D

Man of Steel 3 3D

Mi Villano favorito 2 3D

Aviones 3D

Turbo 2013 3D

Turbo 2013 3D

Percy Jackson 2013 3D

Gatsby 3D

Epic 3D

Gi Joe 2 3D

Hansel y Gretel 3D

Hansel y Gretel 3D

Oz 3D

The Hobbit 3D

Ilusionautas 3D

Life of Pi 3D

El Origen de los Guardianes 3D

Ralph el Demoledor 3D

Silent Hill Revelation 3D

Monster 3D

Monster 3D

Monster 3D

DREDD 3D 1080P

Brave 3D 1080P

Series en DVD

Spartacus Vengeance Season  2 DVD The Big Bang Theory Season 5 DVD Homeland Season 1 DVD Once Upon a Time Season 1 DVD The Walking Dead Season 2 DVD