Turbo (2013) [3D SBS][BDRip 1080p][Español Latino 5.1/Ingles DTS][Sub.Español Completos 3D]

Por Chamako / hace 3 años / 1 Comentario ».

turbo

Comedia en 3D de alta velocidad que gira en torno a un desvalido caracol cuyos sueños se ponen en superdirecta cuando –de forma milagrosa– consigue el poder de la hipervelocidad. Pero después de entablar amistad con un equipo de espabilados y acicalados caracoles, Turbo aprende que nadie alcanza el éxito con sus solas fuerzas. Así que pone todo su corazón (y su concha) en la empresa para ayudar a sus amigos a hacer realidad sus sueños, antes de meterle el turbocompresor a su propia ilusión imposible: ganar las 500 Millas de Indianápolis.


Título: Turbo
Título original: Turbo
País: USA
Estreno en USA: 17/07/2013
Estreno en España: 18/10/2013
Productora: 20th Century Fox, DreamWorks Animation
Director: David Soren
Guión: Darren Lemke, Robert Siegel, David Soren
Reparto: (Voces de) Ryan Reynolds, Paul Giamatti, Michael Pena, Luis Guzmán, Bill Hader, Richard Jenkins, Ken Jeong, Michelle Rodriguez, Maya Rudolph, Ben Schwartz, Snoop Dogg, a.k.a. Snoop Lion, Samuel L. Jackson
Calificación: Apta para todos los públicos


c2013-11-02-23h29m01s179.png
c2013-11-02-23h29m14s54.png
c2013-11-02-23h30m13s162.png
c2013-11-02-23h28m51s97.png

General
Unique ID : 214888998141250469451553012880072690401 (0xA1AA1D998829FD1F9E96EF2A133ECAE1)
Complete name : Turbo.3D.2013.1080p.BluRay.Half-SBS.Latino-.Chamako.mkv
Format : Matroska
Format version : Version 2
File size : 7.60 GiB
Duration : 1h 35mn
Overall bit rate : 11.4 Mbps
Movie name : www.Chamako.Net – Turbo (2013) 3D SBS 1080P Latino 5.1
Encoded date : UTC 2013-11-03 05:13:24
Writing application : mkvmerge v3.4.0 (‘Rapunzel’) built on May 15 2010 09:38:20
Writing library : libebml v0.8.0 + libmatroska v0.9.0

Video
ID : 1
Format : AVC
Format/Info : Advanced Video Codec
Format profile : High@L4.1
MultiView_Count : 2
MultiView_Layout : Right Eye
Format settings, CABAC : Yes
Format settings, ReFrames : 4 frames
Codec ID : V_MPEG4/ISO/AVC
Duration : 1h 35mn
Bit rate : 9 181 Kbps
Width : 1 920 pixels
Height : 1 080 pixels
Display aspect ratio : 16:9
Frame rate mode : Constant
Frame rate : 23.976 fps
Color space : YUV
Chroma subsampling : 4:2:0
Bit depth : 8 bits
Scan type : Progressive
Bits/(Pixel*Frame) : 0.185
Stream size : 6.14 GiB (81%)
Title : www.Chamako.Net – Turbo (2013)
Language : English
Default : No
Forced : No

Audio #1
ID : 2
Format : AC-3
Format/Info : Audio Coding 3
Mode extension : CM (complete main)
Format settings, Endianness : Big
Codec ID : A_AC3
Duration : 1h 35mn
Bit rate mode : Constant
Bit rate : 448 Kbps
Channel(s) : 6 channels
Channel positions : Front: L C R, Side: L R, LFE
Sampling rate : 48.0 KHz
Bit depth : 16 bits
Compression mode : Lossy
Stream size : 307 MiB (4%)
Title : www.Chamako.Net – Latino 5.1
Language : Spanish
Default : Yes
Forced : No

Audio #2
ID : 3
Format : DTS
Format/Info : Digital Theater Systems
Format profile : ES
Mode : 16
Format settings, Endianness : Big
Codec ID : A_DTS
Duration : 1h 35mn
Bit rate mode : Constant
Bit rate : 1 509 Kbps
Channel(s) : 6 channels
Channel positions : Front: L C R, Side: L R, LFE
Sampling rate : 48.0 KHz
Bit depth : 24 bits
Compression mode : Lossy
Delay relative to video : 11ms
Stream size : 1.01 GiB (13%)
Title : www.Chamako.Net – English DTS
Language : English
Default : No
Forced : No

Text
ID : 4
Format : ASS
Codec ID : S_TEXT/ASS
Codec ID/Info : Advanced Sub Station Alpha
Compression mode : Lossless
Title : www.Chamako.Net – Spanish
Language : Spanish
Default : Yes
Forced : No

Menu
00:00:00.000 : en:00:00:00.000
00:04:41.990 : en:00:04:41.990
00:07:23.234 : en:00:07:23.234
00:09:04.294 : en:00:09:04.294
00:14:38.085 : en:00:14:38.085
00:17:30.549 : en:00:17:30.549
00:24:58.872 : en:00:24:58.872
00:30:10.767 : en:00:30:10.767
00:36:28.186 : en:00:36:28.186
00:40:37.518 : en:00:40:37.518
00:42:51.193 : en:00:42:51.193
00:48:07.801 : en:00:48:07.801
00:51:37.802 : en:00:51:37.802
00:56:22.378 : en:00:56:22.378
01:00:06.144 : en:01:00:06.144
01:01:59.924 : en:01:01:59.924
01:07:05.312 : en:01:07:05.312
01:10:13.041 : en:01:10:13.041
01:12:27.134 : en:01:12:27.134
01:16:26.915 : en:01:16:26.915

FREAKSHARE

http://freakshare.com/files/1ahgchzo/TRB31O8O3DChamako.part01.rar.html
http://freakshare.com/files/pq1xnz0f/TRB31O8O3DChamako.part01.rev.html
http://freakshare.com/files/l44cbzas/TRB31O8O3DChamako.part02.rar.html
http://freakshare.com/files/l3w2sohu/TRB31O8O3DChamako.part02.rev.html
http://freakshare.com/files/cn3bki3c/TRB31O8O3DChamako.part03.rar.html
http://freakshare.com/files/wrjtmzyo/TRB31O8O3DChamako.part04.rar.html
http://freakshare.com/files/7bas5tal/TRB31O8O3DChamako.part05.rar.html
http://freakshare.com/files/1o4g5v8y/TRB31O8O3DChamako.part06.rar.html
http://freakshare.com/files/w0o4jxnu/TRB31O8O3DChamako.part07.rar.html
http://freakshare.com/files/juzw8v42/TRB31O8O3DChamako.part08.rar.html
http://freakshare.com/files/ze1hezu3/TRB31O8O3DChamako.part09.rar.html
http://freakshare.com/files/qgu73evz/TRB31O8O3DChamako.part10.rar.html
http://freakshare.com/files/u9u7h43t/TRB31O8O3DChamako.part11.rar.html
http://freakshare.com/files/4densgav/TRB31O8O3DChamako.part12.rar.html
http://freakshare.com/files/gtybckgz/TRB31O8O3DChamako.part13.rar.html
http://freakshare.com/files/zxpb0h1x/TRB31O8O3DChamako.part14.rar.html
http://freakshare.com/files/93mkh8xb/TRB31O8O3DChamako.part15.rar.html
http://freakshare.com/files/xzehw4n1/TRB31O8O3DChamako.part16.rar.html

UPLOADED

http://ul.to/rhcy49a0
http://ul.to/vsl24xnt
http://ul.to/vkc7yvdt
http://ul.to/872f0cdk
http://ul.to/7ou6dy1s
http://ul.to/89swbw0s
http://ul.to/d1sih7m9
http://ul.to/1k9wiqpb
http://ul.to/c8u9kfp6
http://ul.to/i6u9kth5
http://ul.to/3yh3vuk7
http://ul.to/afka9mk1
http://ul.to/gcslfkxm
http://ul.to/709ru1xc
http://ul.to/1n0an3n8
http://ul.to/3xer70ml
http://ul.to/83fiafe5
http://ul.to/ky07bln3

PUTLOCKER
Lo sentimos, este contenido está visible solamente para usuarios registrados. Click aquí para Registrarse

MEGA
Lo sentimos, este contenido está visible solamente para usuarios registrados. Click aquí para Registrarse


La Contraseña para todos los archivos es “chamako” (sin comillas y todo minusculas)

Apoyame comprando tu cuenta premium de estos servidores

Compra tu cuenta premium cada mes >>> FreakShare

Compra tu cuenta premium cada mes  >>> Uploaded

Un Comentario

Deja un comentario

Compra premium Uploaded

uploaded

Facebook

Peliculas en 3D

Monsters Univrsity 3D

Pacific Rim 3D

Croods 3D

Star Trek 3D

Guerra Mundial Z 3D

Iron MAN 3 3D

Rip Departamento 3D

Los Pitufos 2 3 3D

Man of Steel 3 3D

Mi Villano favorito 2 3D

Aviones 3D

Turbo 2013 3D

Turbo 2013 3D

Percy Jackson 2013 3D

Gatsby 3D

Epic 3D

Gi Joe 2 3D

Hansel y Gretel 3D

Hansel y Gretel 3D

Oz 3D

The Hobbit 3D

Ilusionautas 3D

Life of Pi 3D

El Origen de los Guardianes 3D

Ralph el Demoledor 3D

Silent Hill Revelation 3D

Monster 3D

Monster 3D

Monster 3D

DREDD 3D 1080P

Brave 3D 1080P

Series en DVD

Spartacus Vengeance Season  2 DVD The Big Bang Theory Season 5 DVD Homeland Season 1 DVD Once Upon a Time Season 1 DVD The Walking Dead Season 2 DVD