Wonder Woman (2017) 3D SBS [1080p][Español Latino 5.1/Ingles DTS][MEGA]

Por Chamako / hace 3 semanas / 2 Comentarios ».

Descargar Wonder Woman 3D SBS Audio Latino Antes de ser Wonder Woman (Gal Gadot) era Diana, princesa de las Amazonas, entrenada para ser una guerrera invencible. Diana fue criada en una isla paradisíaca protegida. Hasta que un día un piloto norteamericano (Chris Pine), que tiene un accidente y acaba en sus costas, le habla de un gran conflicto existente en el mundo. Diana decide salir de la isla convencida de que puede detener la terrible amenaza. Mientras lucha junto a los hombres en la guerra que acabará con todas las guerras, Diana descubre todos sus poderes y su verdadero destino

INFORMACIÓN

Wonder Womanaka
Año: 2017
Duración: 141 min.
País: Estados Unidos
Director: Patty Jenkins
Guion: Allan Heinberg (Historia: Zack Snyder, Allan Heinberg, Jason Fuchs; Personajes: William M. Marston)
Música: Rupert Gregson-Williams
Fotografía: Matthew Jensen
Reparto: Gal Gadot, Chris Pine, David Thewlis, Danny Huston, Elena Anaya, Ewen Bremner, Saïd Taghmaoui, Eugene Brave Rock, Connie Nielsen, Robin Wright, Lucy Davis, Samantha Jo, Lisa Loven Kongsli, Florence Kasumba, Mayling Ng, Emily Carey, Doutzen Kroes
Productora Warner Bros. Pictures / DC Entertainment / Atlas Entertainment / Cruel, Unusual Films
Género: Fantástico. Acción. Bélico. Aventuras | Superhéroes. Cómic. DC Comics. I Guerra Mundial
Grupos :DC Extended Universe (DCEU) | Wonder Woman Novedad

CAPTURAS

NFO

General
Unique ID :
Complete name : G:\New Folder\home\Wonder.Woman.2017.3D.1080p.SBS.Audio.Latino.Chamako.mkv
Format : Matroska
Format version : Version 4 / Version 2
File size : 11.4 GiB
Duration : 2 h 21 min
Overall bit rate : 11.5 Mb/s
Movie name : Chamako.Net – Wonder Woman (2017) 3D SBS 1080P Audio Latino
Encoded date : UTC 2017-09-14 04:39:03
Writing application : mkvmerge v7.9.0 (‘Birds’) 64bit
Writing library : libebml v1.3.1 + libmatroska v1.4.2

Video
ID : 1
Format : AVC
Format/Info : Advanced Video Codec
Format profile : High@L4.1
Format settings, CABAC : Yes
Format settings, RefFrames : 5 frames
Codec ID : V_MPEG4/ISO/AVC
Duration : 2 h 21 min
Bit rate : 9 576 kb/s
Width : 1 920 pixels
Height : 800 pixels
Display aspect ratio : 2.40:1
Frame rate mode : Constant
Frame rate : 23.976 FPS
Color space : YUV
Chroma subsampling : 4:2:0
Bit depth : 8 bits
Scan type : Progressive
Bits/(Pixel*Frame) : 0.260
Stream size : 9.44 GiB (83%)
Title : Chamako.Net – Audio Latino
Writing library : x264 core 152 r2851 ba24899
Encoding settings : cabac=1 / ref=5 / deblock=1:0:0 / analyse=0x3:0x133 / me=umh / subme=7 / psy=1 / psy_rd=1.00:0.00 / mixed_ref=1 / me_range=16 / chroma_me=1 / trellis=1 / 8x8dct=1 / cqm=0 / deadzone=21,11 / fast_pskip=0 / chroma_qp_offset=-2 / threads=25 / lookahead_threads=4 / sliced_threads=0 / nr=0 / decimate=1 / interlaced=0 / bluray_compat=0 / constrained_intra=0 / bframes=3 / b_pyramid=2 / b_adapt=1 / b_bias=0 / direct=1 / weightb=1 / open_gop=0 / weightp=2 / keyint=250 / keyint_min=23 / scenecut=40 / intra_refresh=0 / rc_lookahead=40 / rc=2pass / mbtree=1 / bitrate=9576 / ratetol=1.0 / qcomp=0.60 / qpmin=0 / qpmax=69 / qpstep=4 / cplxblur=20.0 / qblur=0.5 / ip_ratio=1.40 / aq=1:1.00
Language : English
Default : Yes
Forced : No

Audio #1
ID : 2
Format : AC-3
Format/Info : Audio Coding 3
Format settings, Endianness : Big
Codec ID : A_AC3
Duration : 2 h 21 min
Bit rate mode : Constant
Bit rate : 448 kb/s
Channel(s) : 6 channels
Channel positions : Front: L C R, Side: L R, LFE
Sampling rate : 48.0 kHz
Frame rate : 31.250 FPS (1536 SPF)
Bit depth : 16 bits
Compression mode : Lossy
Stream size : 453 MiB (4%)
Title : Chamako.Net – Completos
Language : Spanish
Service kind : Complete Main
Default : Yes
Forced : Yes

Audio #2
ID : 3
Format : DTS
Format/Info : Digital Theater Systems
Mode : 16
Format settings, Endianness : Big
Codec ID : A_DTS
Duration : 2 h 21 min
Bit rate mode : Constant
Bit rate : 1 509 kb/s
Channel(s) : 6 channels
Channel positions : Front: L C R, Side: L R, LFE
Sampling rate : 48.0 kHz
Frame rate : 93.750 FPS (512 SPF)
Bit depth : 24 bits
Compression mode : Lossy
Stream size : 1.49 GiB (13%)
Title : Chamako.Net – English
Language : English
Default : No
Forced : No

Text #1
ID : 4
Format : ASS
Codec ID : S_TEXT/ASS
Codec ID/Info : Advanced Sub Station Alpha
Duration : 2 h 6 min
Bit rate : 2 b/s
Count of elements : 34
Compression mode : Lossless
Stream size : 2.32 KiB (0%)
Default : Yes
Forced : No

Text #2
ID : 5
Format : ASS
Codec ID : S_TEXT/ASS
Codec ID/Info : Advanced Sub Station Alpha
Duration : 2 h 12 min
Bit rate : 230 b/s
Count of elements : 3172
Compression mode : Lossless
Stream size : 223 KiB (0%)
Default : No
Forced : No

Menu
00:00:00.000 : en:00:00:00.000
00:10:26.918 : en:00:10:26.918
00:23:12.558 : en:00:23:12.558
00:33:10.739 : en:00:33:10.739
00:43:55.132 : en:00:43:55.132
00:54:25.554 : en:00:54:25.554
01:07:38.263 : en:01:07:38.263
01:22:30.195 : en:01:22:30.195
01:34:02.846 : en:01:34:02.846
01:45:37.998 : en:01:45:37.998
01:57:43.765 : en:01:57:43.765
02:10:41.417 : en:02:10:41.417

DESCARGAR

UPLOADED

http://ul.to/103vsm6k
http://ul.to/ik3bwkyo
http://ul.to/nj6xn5n6
http://ul.to/wn50hzq2
http://ul.to/3tynlgqm
http://ul.to/lv562qo5
http://ul.to/otvyl7v1
http://ul.to/gm7f8r1r
http://ul.to/jpk9enoe
http://ul.to/ahn3u4j7
http://ul.to/w9l0a6ki
http://ul.to/1spwkf2j
http://ul.to/owtlhq54
http://ul.to/zio22y6l
http://ul.to/hh9tn9dq

1FICHIER

https://1fichier.com/?xwru98hx4v
https://1fichier.com/?zc4pccboug
https://1fichier.com/?i0kizn3xop
https://1fichier.com/?i11c9fhvcl
https://1fichier.com/?7z97iztgat
https://1fichier.com/?bi2suv5ezm
https://1fichier.com/?5wwxwpfq6v
https://1fichier.com/?5f1oercxqk
https://1fichier.com/?8iw86vdmo9
https://1fichier.com/?trdvy36g8x
https://1fichier.com/?b10o7b63wp
https://1fichier.com/?jeayi4ciym
https://1fichier.com/?2e4h9gm52o
https://1fichier.com/?j3ty865zw0
https://1fichier.com/?zqzl0zawg7

MEGA

Lo sentimos, este contenido está visible solamente para usuarios registrados. Click aquí para Registrarse

Google DRIVE

Lo sentimos, este contenido está visible solamente para usuarios registrados. Click aquí para Registrarse

2 Comentarios

Deja un comentario

Compra premium Uploaded

uploaded

Facebook

Peliculas en 3D

Monsters Univrsity 3D

Pacific Rim 3D

Croods 3D

Star Trek 3D

Guerra Mundial Z 3D

Iron MAN 3 3D

Rip Departamento 3D

Los Pitufos 2 3 3D

Man of Steel 3 3D

Mi Villano favorito 2 3D

Aviones 3D

Turbo 2013 3D

Turbo 2013 3D

Percy Jackson 2013 3D

Gatsby 3D

Epic 3D

Gi Joe 2 3D

Hansel y Gretel 3D

Hansel y Gretel 3D

Oz 3D

The Hobbit 3D

Ilusionautas 3D

Life of Pi 3D

El Origen de los Guardianes 3D

Ralph el Demoledor 3D

Silent Hill Revelation 3D

Monster 3D

Monster 3D

Monster 3D

DREDD 3D 1080P

Brave 3D 1080P

Series en DVD

Spartacus Vengeance Season  2 DVD The Big Bang Theory Season 5 DVD Homeland Season 1 DVD Once Upon a Time Season 1 DVD The Walking Dead Season 2 DVD